Рок-урок. Много музыки (Ностальгия) [1993, Pop, Documentary, DVB]

Ответить на тему
Статистика раздачи [Обновить пиров]
Размер:  1.05 GB   |    Зарегистрирован:  13 дней   |    Скачан:  0 раз

Полного источника не было: Никогда

 
   
 
 
 
Автор Сообщение

islamvillage.com

Создавать темы 06-Янв-2019 19:17

[Цитировать]

Рок-урок. Много музыки
Год выхода: 1993
Страна: Россия
Жанр: Pop, Documentary
Продолжительность: 00:40:01
Телеканал: Ностальгия (первоначально – 1 канал Останкино)
Описание: Музыкальная передача с участием группы «Ван Моо», артиста Михаила Барышникова, музыканта Леонида Аграновича, кинорежиссёра Егора Шиллера, певца Виктора Рыбина и группы «Дюна», композитора Ивана Лямина, певицы Натальи Сенчуковой и др.
Треклист музыкальных выступлений:
1. гр. «Ван Моо» – Хава Нагила
2. Леонид Агранович – Кошка
3. гр. «Дюна» и Виктор Рыбин – Гринпис
4. Наталья Сенчукова – Доктор Петров
Качество: DVB
Формат файла: TS
Видео кодек: H264
Аудио кодек: MP2
Видео: H264 720x576 (4:3) 25fps 3385kbps
Аудио: MP2 48000Hz stereo 192kbps

Скриншоты


Подробные технические данные

GeneralID : 11 (0xB)Complete name : Рок-урок (1993) [Ностальгия].tsFormat : MPEG-TSFile size : 1.05 GiBDuration : 40mn 1sOverall bit rate mode : VariableOverall bit rate : 3 765 Kbps
VideoID : 230 (0xE6)Menu ID : 1 (0x1)Format : AVCFormat/Info : Advanced Video CodecFormat profile : High@L3Format settings, CABAC : YesFormat settings, ReFrames : 4 framesCodec ID : 27Duration : 40mn 1sBit rate : 3 385 KbpsWidth : 720 pixelsHeight : 576 pixelsDisplay aspect ratio : 4:3Frame rate : 25.000 fpsStandard : PALColor space : YUVChroma subsampling : 4:2:0Bit depth : 8 bitsScan type : InterlacedScan order : Top Field FirstBits/(Pixel*Frame) : 0.326Stream size : 969 MiB (90%)Color range : LimitedColor primaries : BT.601 PALTransfer characteristics : BT.470 System B, BT.470 System GMatrix coefficients : BT.601
AudioID : 50 (0x32)Menu ID : 1 (0x1)Format : MPEG AudioFormat version : Version 1Format profile : Layer 2Codec ID : 4Duration : 40mn 1sBit rate mode : ConstantBit rate : 192 KbpsChannel(s) : 2 channelsSampling rate : 48.0 KHzCompression mode : LossyDelay relative to video : -8msStream size : 55.0 MiB (5%)Language : RussianLanguage, more info : Clean effects


[islamvillage.com]_t_5280936.torrent
Торрент: Зарегистрирован ·  [ 2019-01-06 19:01 ] ·  41c64de1e736a12cabd5e71dc8501a56168c1f6b

11 KB

Статус: проверено
Скачан: 0 раз
Размер: 1.05 GB
Оценка: 
(Голосов: 0)
Сказали спасибо: 0  Спасибо
Похожие темы
[Профиль]    [ЛС]
Показать сообщения:    
Ответить на тему

Текущее время: Сегодня 16:12

Часовой пояс: GMT + 7



Вы не можете начинать темы
Вы не можете отвечать на сообщения
Вы не можете редактировать свои сообщения
Вы не можете удалять свои сообщения
Вы не можете голосовать в опросах
Вы не можете прикреплять файлы к сообщениям
Вы можете скачивать файлы


William Holden | Seau Systme | Edward Keane