(Contemporary Jazz) [CD] Magnus Thuelund - Angel from the South - 2018, FLAC (tracks+.cue), lossless

Ответить на тему
Статистика раздачи [Обновить пиров]
Размер:  398 MB   |    Зарегистрирован:  16 дней   |    Скачан:  0 раз

Полного источника не было: Никогда

 
   
 
 
 
Автор Сообщение

islamvillage.com

Создавать темы 06-Янв-2019 19:22

[Цитировать]

Magnus Thuelund - Angel from the South- Жанр: Contemporary Jazz
Носитель: CD
Страна-производитель диска (релиза): Spain
Год издания: 2018
Издатель (лейбл): Fresh Sound Records
Номер по каталогу: FSNT 547
Аудиокодек: FLAC (*.flac)
Тип рипа: tracks+.cue
Битрейт аудио: lossless
Продолжительность: 01:02:50
Источник (релизер): www
Наличие сканов в содержимом раздачи: да--Ralph Alessi (trumpet)
Magnus Thuelund (alto sax)
Marc Mommaas (tenor sax on #3 & 7)
Nikolaj Hess (piano)
Graig Earle (bass)
Nasheet Waits (drums)
-Recorded at Systems Two, Brooklyn, NY, February 15 & 16, 2017
--01. Slower (09:41)
02. Argentum (07:35)
03. Reach (09:40)
04. Angel from the South (07:21)
05. Autumn in April (05:09)
06. Illuminate (07:46)
07. Aurum (10:24)
08. Miss Lisa (05:11)--

Лог создания рипа

Exact Audio Copy V1.3 from 2. September 2016
EAC extraction logfile from 12. December 2018, 12:09
Magnus Thuelund / Angel From The South
Used drive : ATAPI iHBS112 2 Adapter: 1 ID: 1
Read mode : SecureUtilize accurate stream : YesDefeat audio cache : YesMake use of C2 pointers : No
Read offset correction : 6Overread into Lead-In and Lead-Out : NoFill up missing offset samples with silence : YesDelete leading and trailing silent blocks : NoNull samples used in CRC calculations : YesUsed interface : Native Win32 interface for Win NT & 2000Gap handling : Appended to previous track
Used output format : User Defined EncoderSelected bitrate : 768 kBit/sQuality : HighAdd ID3 tag : NoCommand line compressor : C:\Program Files (x86)\Exact Audio Copy\Flac\flac.exeAdditional command line options : -8 -V -T "ARTIST=%artist%" -T "TITLE=%title%" -T "ALBUM=%albumtitle%" -T "DATE=%year%" -T "TRACKNUMBER=%tracknr%" -T "GENRE=%genre%" -T "PERFORMER=%albuminterpret%" -T "COMPOSER=%composer%" -T "ALBUMARTIST=%albumartist%" -T "DISCNUMBER=%cdnumber%" -T "TOTALDISCS=%totalcds%" -T "TOTALTRACKS=%numtracks%" -T "COMMENT=EAC Secure Mode, Test & Copy, AccurateRip, FLAC -8" %source% -o %dest%
TOC of the extracted CD
Track | Start | Length | Start sector | End sector --------------------------------------------------------- 1 | 0:00.00 | 9:41.20 | 0 | 43594 2 | 9:41.20 | 7:35.74 | 43595 | 77793 3 | 17:17.19 | 9:40.23 | 77794 | 121316 4 | 26:57.42 | 7:21.33 | 121317 | 154424 5 | 34:19.00 | 5:09.60 | 154425 | 177659 6 | 39:28.60 | 7:46.31 | 177660 | 212640 7 | 47:15.16 | 10:24.01 | 212641 | 259441 8 | 57:39.17 | 5:11.00 | 259442 | 282766
Track 1
Filename G:\DL\Magnus Thuelund - Angel from the South (2018) [FLAC]\01 - Slower.wav
Pre-gap length 0:00:02.00
Peak level 97.9 % Extraction speed 2.2 X Track quality 100.0 % Test CRC 64154CD9 Copy CRC 64154CD9 Track not present in AccurateRip database Copy OK
Track 2
Filename G:\DL\Magnus Thuelund - Angel from the South (2018) [FLAC]\02 - Argentum.wav
Pre-gap length 0:00:01.48
Peak level 96.6 % Extraction speed 2.7 X Track quality 100.0 % Test CRC C1C586A6 Copy CRC C1C586A6 Track not present in AccurateRip database Copy OK
Track 3
Filename G:\DL\Magnus Thuelund - Angel from the South (2018) [FLAC]\03 - Reach.wav
Pre-gap length 0:00:02.00
Peak level 98.9 % Extraction speed 2.7 X Track quality 99.9 % Test CRC 429993DF Copy CRC 429993DF Track not present in AccurateRip database Copy OK
Track 4
Filename G:\DL\Magnus Thuelund - Angel from the South (2018) [FLAC]\04 - Angel from the South.wav
Pre-gap length 0:00:00.54
Peak level 96.8 % Extraction speed 3.3 X Track quality 100.0 % Test CRC 440F6A74 Copy CRC 440F6A74 Track not present in AccurateRip database Copy OK
Track 5
Filename G:\DL\Magnus Thuelund - Angel from the South (2018) [FLAC]\05 - Autumn in April.wav
Pre-gap length 0:00:02.21
Peak level 79.4 % Extraction speed 3.4 X Track quality 100.0 % Test CRC 01329582 Copy CRC 01329582 Track not present in AccurateRip database Copy OK
Track 6
Filename G:\DL\Magnus Thuelund - Angel from the South (2018) [FLAC]\06 - Illuminate.wav
Pre-gap length 0:00:01.38
Peak level 95.8 % Extraction speed 3.2 X Track quality 99.9 % Test CRC 6F43039F Copy CRC 6F43039F Track not present in AccurateRip database Copy OK
Track 7
Filename G:\DL\Magnus Thuelund - Angel from the South (2018) [FLAC]\07 - Aurum.wav
Pre-gap length 0:00:02.41
Peak level 98.9 % Extraction speed 4.1 X Track quality 100.0 % Test CRC 2EFE8937 Copy CRC 2EFE8937 Track not present in AccurateRip database Copy OK
Track 8
Filename G:\DL\Magnus Thuelund - Angel from the South (2018) [FLAC]\08 - Miss Lisa.wav
Pre-gap length 0:00:02.53
Peak level 93.6 % Extraction speed 4.1 X Track quality 100.0 % Test CRC D4AC9C71 Copy CRC D4AC9C71 Track not present in AccurateRip database Copy OK
None of the tracks are present in the AccurateRip database
No errors occurred
End of status report
---- CUETools DB Plugin V2.1.6
[CTDB TOCID: wmS7xMzf_56E1Gx2wI7JzI9Mook-] foundSubmit result: wmS7xMzf_56E1Gx2wI7JzI9Mook- has been confirmedTrack | CTDB Status 1 | (1/1) Accurately ripped 2 | (1/1) Accurately ripped 3 | (1/1) Accurately ripped 4 | (1/1) Accurately ripped 5 | (1/1) Accurately ripped 6 | (1/1) Accurately ripped 7 | (1/1) Accurately ripped 8 | (1/1) Accurately ripped
==== Log checksum F1E22E73A4D4FE9F9CDD6346427DB6B75397745ACF987EC69C7814D1EF5E4A28 ====

Содержание индексной карты (.CUE)

REM GENRE ClassicalREM DATE 2018REM DISCID 670EBA08REM COMMENT "ExactAudioCopy v1.3"PERFORMER "Magnus Thuelund "TITLE "Angel From The South "REM COMPOSER ""FILE "01 - Slower.wav" WAVE TRACK 01 AUDIO TITLE "Slower" PERFORMER "Magnus Thuelund " REM COMPOSER "" INDEX 01 00:00:00 TRACK 02 AUDIO TITLE "Argentum" PERFORMER "Magnus Thuelund " REM COMPOSER "" INDEX 00 09:39:47FILE "02 - Argentum.wav" WAVE INDEX 01 00:00:00 TRACK 03 AUDIO TITLE "Reach" PERFORMER "Magnus Thuelund " REM COMPOSER "" INDEX 00 07:33:74FILE "03 - Reach.wav" WAVE INDEX 01 00:00:00 TRACK 04 AUDIO TITLE "Angel from the South" PERFORMER "Magnus Thuelund " REM COMPOSER "" INDEX 00 09:39:44FILE "04 - Angel from the South.wav" WAVE INDEX 01 00:00:00 TRACK 05 AUDIO TITLE "Autumn in April" PERFORMER "Magnus Thuelund " REM COMPOSER "" INDEX 00 07:19:12FILE "05 - Autumn in April.wav" WAVE INDEX 01 00:00:00 TRACK 06 AUDIO TITLE "Illuminate" PERFORMER "Magnus Thuelund " REM COMPOSER "" INDEX 00 05:08:22FILE "06 - Illuminate.wav" WAVE INDEX 01 00:00:00 TRACK 07 AUDIO TITLE "Aurum" PERFORMER "Magnus Thuelund " REM COMPOSER "" INDEX 00 07:43:65FILE "07 - Aurum.wav" WAVE INDEX 01 00:00:00 TRACK 08 AUDIO TITLE "Miss Lisa" PERFORMER "Magnus Thuelund " REM COMPOSER "" INDEX 00 10:21:23FILE "08 - Miss Lisa.wav" WAVE INDEX 01 00:00:00


[islamvillage.com]_t_5659057.torrent
Торрент: Зарегистрирован ·  [ 2019-01-06 19:01 ] ·  3879b924abb420252e5d652a1f0781d4e2e19f10

17 KB

Статус: проверено
Скачан: 0 раз
Размер: 398 MB
Оценка: 
(Голосов: 0)
Сказали спасибо: 0  Спасибо
Похожие темы
[Профиль]    [ЛС]
Показать сообщения:    
Ответить на тему

Текущее время: Сегодня 21:08

Часовой пояс: GMT + 7



Вы не можете начинать темы
Вы не можете отвечать на сообщения
Вы не можете редактировать свои сообщения
Вы не можете удалять свои сообщения
Вы не можете голосовать в опросах
Вы не можете прикреплять файлы к сообщениям
Вы можете скачивать файлы


Esportes | 2x3 season x episode Future Man | [ACESSE COMANDOTORRENTS COM] Bohemian Rhapsody 2018 [HDCAM] [720p] [DUBLADO]