(Contemporary Jazz, Modern Creative) [CD] Joakim Berghäll (Berghall) - Dialogues II - 2014, FLAC (tracks+.cue), lossless

Ответить на тему
Статистика раздачи [Обновить пиров]
Размер:  282 MB   |    Зарегистрирован:  16 дней   |    Скачан:  0 раз

Полного источника не было: Никогда

 
   
 
 
 
Автор Сообщение

islamvillage.com

Создавать темы 06-Янв-2019 19:26

[Цитировать]

Joakim Berghäll - Dialogues II
Жанр: Contemporary Jazz, Modern Creative
Носитель: CDR (Limited 100 copy edition)
Страна-производитель диска (релиза): FI
Год издания: 2014
Издатель (лейбл): Boulder Music Helsinki
Номер по каталогу: BMHCD2
Страна исполнителя (группы): FI
Аудиокодек: FLAC (*.flac)
Тип рипа: tracks+.cue
Битрейт аудио: lossless
Продолжительность: 00:58:35
Источник (релизер): tatata
Наличие сканов в содержимом раздачи: нет
Треклист:
1. Tunnel 57 (with Markus Pesonen) (05:41)
2. Portraits And Landscapes (with Teemu Viinikainen) (07:13)
3. Virtauksia I: Undercurrent (with Jarmo Saari) (05:33)
4. Virtauksia II: Tavallinen Virtanen (with Timo Kämäräinen) (05:35)
5. Virtauksia III: Vuoksi (with Marzi Nyman) (05:13)
6. And Life Will Get Better And Better (with Kalle Kalima) (06:03)
7. Vernissage (with Janne Halonen) (05:35)
8. Ronkeli (with Jukka Orma) (05:19)
9. Sarastus (with Olli Haavisto) (06:11)
10. Absence (with Jussi Jaakonaho) (06:11)

Лог создания рипа

X Lossless Decoder version 20181019 (151.1)
XLD extraction logfile from 2018-11-26 13:40:45 +0200
Joakim Berghäll / Dialogues II
Used drive : MATSHITA DVD-RAM UJ-841S (revision 1.00)Media type : CD-Recordable
Ripper mode : XLD Secure RipperDisable audio cache : OK for the drive with a cache less than 1375KiBMake use of C2 pointers : NORead offset correction : 102Max retry count : 20Gap status : Analyzed, Appended (except HTOA)
TOC of the extracted CD Track | Start | Length | Start sector | End sector --------------------------------------------------------- 1 | 00:00:00 | 05:41:10 | 0 | 25584 2 | 05:41:10 | 07:13:25 | 25585 | 58084 3 | 12:54:35 | 05:33:00 | 58085 | 83059 4 | 18:27:35 | 05:34:46 | 83060 | 108155 5 | 24:02:06 | 05:13:26 | 108156 | 131656 6 | 29:15:32 | 06:03:03 | 131657 | 158884 7 | 35:18:35 | 05:35:10 | 158885 | 184019 8 | 40:53:45 | 05:19:35 | 184020 | 207979 9 | 46:13:05 | 06:11:31 | 207980 | 235835 10 | 52:24:36 | 06:11:01 | 235836 | 263661
AccurateRip Summary Disc not found in AccurateRip DB.
All Tracks Album gain : -6.50 dB Peak : 0.999969 Statistics Read error : 0 Jitter error (maybe fixed) : 0 Retry sector count : 0 Damaged sector count : 0
Track 01 Filename : /Volumes/Hg/NWCD/Joakim Berghäll - Dialogues II (2014) [FLAC]/01 Tunnel.flac Pre-gap length : 00:02:00
Track gain : -6.22 dB Peak : 0.999969 CRC32 hash (test run) : 7CA2E155 CRC32 hash : 7CA2E155 CRC32 hash (skip zero) : 9BCA180C AccurateRip v1 signature : D7540DF4 AccurateRip v2 signature : 4DA55DEC ->Track not present in AccurateRip database. Statistics Read error : 0 Jitter error (maybe fixed) : 0 Retry sector count : 0 Damaged sector count : 0
Track 02 Filename : /Volumes/Hg/NWCD/Joakim Berghäll - Dialogues II (2014) [FLAC]/02 Portraits and Landscapes.flac Pre-gap length : 00:02:00
Track gain : -7.93 dB Peak : 0.999969 CRC32 hash (test run) : A4B93242 CRC32 hash : A4B93242 CRC32 hash (skip zero) : CB145C15 AccurateRip v1 signature : D8E7FEAF AccurateRip v2 signature : 1E2907CF ->Track not present in AccurateRip database. Statistics Read error : 0 Jitter error (maybe fixed) : 0 Retry sector count : 0 Damaged sector count : 0
Track 03 Filename : /Volumes/Hg/NWCD/Joakim Berghäll - Dialogues II (2014) [FLAC]/03 Virtauksia I: Undercurrent.flac Pre-gap length : 00:02:00
Track gain : -4.38 dB Peak : 0.999969 CRC32 hash (test run) : 1E78EE02 CRC32 hash : 1E78EE02 CRC32 hash (skip zero) : 7563C48A AccurateRip v1 signature : 7F824936 AccurateRip v2 signature : F06408A5 ->Track not present in AccurateRip database. Statistics Read error : 0 Jitter error (maybe fixed) : 0 Retry sector count : 0 Damaged sector count : 0
Track 04 Filename : /Volumes/Hg/NWCD/Joakim Berghäll - Dialogues II (2014) [FLAC]/04 Virtauksia II: Tavallinen Virtanen.flac Pre-gap length : 00:02:00
Track gain : -5.71 dB Peak : 0.999969 CRC32 hash (test run) : E69D259B CRC32 hash : E69D259B CRC32 hash (skip zero) : B46AAFC6 AccurateRip v1 signature : 62A643A7 AccurateRip v2 signature : 431F3D48 ->Track not present in AccurateRip database. Statistics Read error : 0 Jitter error (maybe fixed) : 0 Retry sector count : 0 Damaged sector count : 0
Track 05 Filename : /Volumes/Hg/NWCD/Joakim Berghäll - Dialogues II (2014) [FLAC]/05 Virtauksia III: Vuoksi.flac Pre-gap length : 00:02:00
Track gain : -7.05 dB Peak : 0.972321 CRC32 hash (test run) : 80275F7F CRC32 hash : 80275F7F CRC32 hash (skip zero) : 34195473 AccurateRip v1 signature : CE586101 AccurateRip v2 signature : 7042F828 ->Track not present in AccurateRip database. Statistics Read error : 0 Jitter error (maybe fixed) : 0 Retry sector count : 0 Damaged sector count : 0
Track 06 Filename : /Volumes/Hg/NWCD/Joakim Berghäll - Dialogues II (2014) [FLAC]/06 And Life Will Get Better and Better.flac Pre-gap length : 00:02:00
Track gain : -5.84 dB Peak : 0.972290 CRC32 hash (test run) : E73B1CA6 CRC32 hash : E73B1CA6 CRC32 hash (skip zero) : 0A4A50DE AccurateRip v1 signature : 81D6A243 AccurateRip v2 signature : FEB1E205 ->Track not present in AccurateRip database. Statistics Read error : 0 Jitter error (maybe fixed) : 0 Retry sector count : 0 Damaged sector count : 0
Track 07 Filename : /Volumes/Hg/NWCD/Joakim Berghäll - Dialogues II (2014) [FLAC]/07 Vernissage.flac Pre-gap length : 00:02:00
Track gain : -6.87 dB Peak : 0.972351 CRC32 hash (test run) : 7F0AC2A0 CRC32 hash : 7F0AC2A0 CRC32 hash (skip zero) : 434E8A97 AccurateRip v1 signature : E35CB941 AccurateRip v2 signature : C15ABC56 ->Track not present in AccurateRip database. Statistics Read error : 0 Jitter error (maybe fixed) : 0 Retry sector count : 0 Damaged sector count : 0
Track 08 Filename : /Volumes/Hg/NWCD/Joakim Berghäll - Dialogues II (2014) [FLAC]/08 Ronkeli.flac Pre-gap length : 00:02:00
Track gain : -6.62 dB Peak : 0.917938 CRC32 hash (test run) : CFD1EA6E CRC32 hash : CFD1EA6E CRC32 hash (skip zero) : 8FBACFDB AccurateRip v1 signature : 43B89746 AccurateRip v2 signature : 33FD4E7A ->Track not present in AccurateRip database. Statistics Read error : 0 Jitter error (maybe fixed) : 0 Retry sector count : 0 Damaged sector count : 0
Track 09 Filename : /Volumes/Hg/NWCD/Joakim Berghäll - Dialogues II (2014) [FLAC]/09 Sarastus.flac Pre-gap length : 00:02:00
Track gain : -7.46 dB Peak : 0.972351 CRC32 hash (test run) : 23BED131 CRC32 hash : 23BED131 CRC32 hash (skip zero) : F00F95DD AccurateRip v1 signature : 201D65A2 AccurateRip v2 signature : C9573933 ->Track not present in AccurateRip database. Statistics Read error : 0 Jitter error (maybe fixed) : 0 Retry sector count : 0 Damaged sector count : 0
Track 10 Filename : /Volumes/Hg/NWCD/Joakim Berghäll - Dialogues II (2014) [FLAC]/10 Absence.flac Pre-gap length : 00:02:00
Track gain : -5.10 dB Peak : 0.999969 CRC32 hash (test run) : CC5DD7B2 CRC32 hash : CC5DD7B2 CRC32 hash (skip zero) : F018F009 AccurateRip v1 signature : DBF2616D AccurateRip v2 signature : CC0CC086 ->Track not present in AccurateRip database. Statistics Read error : 0 Jitter error (maybe fixed) : 0 Retry sector count : 0 Damaged sector count : 0
No errors occurred
End of status report
-----BEGIN XLD SIGNATURE-----FmCVRL5rKjyE9IYVPvqDny7Uy8ySfeOroYLFTOciact4T8eK_VyfurNfDx6ljR7BpAe9GnDtLmcmK32Z9gpkxZx_Y7LqKmBW7VIQweO-----END XLD SIGNATURE-----

Содержание индексной карты (.CUE)

TITLE "Dialogues II"PERFORMER "Joakim Berghäll"REM DATE "2014"REM DISCNUMBER 1REM TOTALDISCS 1REM DISCID 840DBB0AREM REPLAYGAIN_ALBUM_GAIN -6.50 dBREM REPLAYGAIN_ALBUM_PEAK 0.999969FILE "01 Tunnel.flac" WAVE TRACK 01 AUDIO TITLE "Tunnel" PERFORMER "Joakim Berghäll" ISRC FIB2M1400001 REM REPLAYGAIN_TRACK_GAIN -6.22 dB REM REPLAYGAIN_TRACK_PEAK 0.999969 INDEX 01 00:00:00 TRACK 02 AUDIO TITLE "Portraits and Landscapes" PERFORMER "Joakim Berghäll" ISRC FIB2M1400002 REM REPLAYGAIN_TRACK_GAIN -7.93 dB REM REPLAYGAIN_TRACK_PEAK 0.999969 INDEX 00 05:39:10FILE "02 Portraits and Landscapes.flac" WAVE INDEX 01 00:00:00 TRACK 03 AUDIO TITLE "Virtauksia I: Undercurrent" PERFORMER "Joakim Berghäll" ISRC FIB2M1400003 REM REPLAYGAIN_TRACK_GAIN -4.38 dB REM REPLAYGAIN_TRACK_PEAK 0.999969 INDEX 00 07:11:25FILE "03 Virtauksia I: Undercurrent.flac" WAVE INDEX 01 00:00:00 TRACK 04 AUDIO TITLE "Virtauksia II: Tavallinen Virtanen" PERFORMER "Joakim Berghäll" ISRC FIB2M1400004 REM REPLAYGAIN_TRACK_GAIN -5.71 dB REM REPLAYGAIN_TRACK_PEAK 0.999969 INDEX 00 05:31:00FILE "04 Virtauksia II: Tavallinen Virtanen.flac" WAVE INDEX 01 00:00:00 TRACK 05 AUDIO TITLE "Virtauksia III: Vuoksi" PERFORMER "Joakim Berghäll" ISRC FIB2M1400005 REM REPLAYGAIN_TRACK_GAIN -7.05 dB REM REPLAYGAIN_TRACK_PEAK 0.972321 INDEX 00 05:32:46FILE "05 Virtauksia III: Vuoksi.flac" WAVE INDEX 01 00:00:00 TRACK 06 AUDIO TITLE "And Life Will Get Better and Better" PERFORMER "Joakim Berghäll" ISRC FIB2M1400006 REM REPLAYGAIN_TRACK_GAIN -5.84 dB REM REPLAYGAIN_TRACK_PEAK 0.972290 INDEX 00 05:11:26FILE "06 And Life Will Get Better and Better.flac" WAVE INDEX 01 00:00:00 TRACK 07 AUDIO TITLE "Vernissage" PERFORMER "Joakim Berghäll" ISRC FIB2M1400007 REM REPLAYGAIN_TRACK_GAIN -6.87 dB REM REPLAYGAIN_TRACK_PEAK 0.972351 INDEX 00 06:01:03FILE "07 Vernissage.flac" WAVE INDEX 01 00:00:00 TRACK 08 AUDIO TITLE "Ronkeli" PERFORMER "Joakim Berghäll" ISRC FIB2M1400008 REM REPLAYGAIN_TRACK_GAIN -6.62 dB REM REPLAYGAIN_TRACK_PEAK 0.917938 INDEX 00 05:33:10FILE "08 Ronkeli.flac" WAVE INDEX 01 00:00:00 TRACK 09 AUDIO TITLE "Sarastus" PERFORMER "Joakim Berghäll" ISRC FIB2M1400009 REM REPLAYGAIN_TRACK_GAIN -7.46 dB REM REPLAYGAIN_TRACK_PEAK 0.972351 INDEX 00 05:17:35FILE "09 Sarastus.flac" WAVE INDEX 01 00:00:00 TRACK 10 AUDIO TITLE "Absence" PERFORMER "Joakim Berghäll" ISRC FIB2M1400010 REM REPLAYGAIN_TRACK_GAIN -5.10 dB REM REPLAYGAIN_TRACK_PEAK 0.999969 INDEX 00 06:09:31FILE "10 Absence.flac" WAVE INDEX 01 00:00:00
Доп. информация:

front, 500px -> 1500px @ itunes

front, 700px -> 2300px @ bandcamp

Music composed by Joakim Berghäll, arranged together with each co-musician.
Recorded & produced in Helsinki & Berlin by Joakim Berghäll, except track 9 recorded by Olli Haavisto & Joakim Berghäll in Järvenpää
Mixed by Mikko Raita, Studio Kekkonen
Mastered by Svante Forsbäck, Chartmakers
Cover art "Virtauksia" by textile artist Johanna Suonpää ; layout by Joakim Berghäll.
http://eclipsemusicrecordlabel.bandcamp.com/album/dialogues-ii
http://www.discogs.com/release/6138088

Об исполнителе (группе)

http://jazzfinland.fi/artist/joakim-berghall/biography
Based in Helsinki, Joakim Berghäll (b. 1980) is a composer/musician allergic to all sorts of boundaries. Berghäll's main instrument is the saxophone, as in tenor, baritone, alto and soprano, but he is also very fluent with percussion, cello, bass and guitar as well.
As a composer Berghäll has mainly written music for small jazz ensembles, but also for large orchestras and chamber ensembles. All kinds of world music has also always appealed to him, which has taken him as a composer more closer to new, improvisational ethnomusic. Besides composing, giggin' and playing to dance lessons Berghäll also teaches young saxophone players at the Conservatory of Vantaa and the music camp of Nilsiä.
Recently Berghäll has been playing with i.a. Tsuumi Sound System, Auteur Jazz, Astro Can Caravan, Saarikorpi Brom, Fredator and The Kling. Previously he has also performed with UMO, Väsen, Frigg, Die Deutsche Kammerfilharmonie Orchestra, teh orchestras of Ville Leinonen and Sakari Kukko.
http://www.pmauriatmusic.com/en/artists/artist/122-joakim-berghall?cid=artist&layout=biography
Berghäll (born 1980) is a saxophone player / composer from Helsinki, Finland who works in the fields of jazz and world music, playing tenor, alto, soprano and baritone saxophones. He's been named "a true role model when it comes to playing saxophones in traditional music projects" in Songlines World Music Magazine, and "an exceptionally skillful and creative soloist" by the largest journal in Finland, Helsingin Sanomat. He has toured extensively in 15 countries.
Currently preparing his first solo album, Berghäll works with groups like Tsuumi Sound System, Far Side Orchestra, Auteur Jazz and Astro Can Caravan.
When asked why did you decide to play on P. Mauriat instruments? Joakim replies:
"Playing in all kinds of musical surroundings from Finnish world music to free and not-that-free jazz - even chamber music - challenges me to be very flexible, and that flexibility can easily be reached with P. Mauriat saxophones. That's what I love most about them: they back me up in every musical situation and never let me down.
Having found P. Mauriat instruments has made my professional life much easier. The sound palette is rich and colorful, which gives me countless possibilities. It's like a candy store. Finally, I'm able to effortlessly reach the sounds I've been looking for all these years. Sure, they look great too, which is a nice bonus, but in the end it all comes down to sound. And I go for the sound. I go for P. Mauriat."

Об альбоме (сборнике)

http://www.birdistheworm.com/recommended-joakim-berghall-dialogues-ii/
The second installment of a four-part series of duets, Dialogues II has saxophonist Joakim Berghäll switching from conversations with Finnish pianists to guitarists from his homeland: Olli Haavisto, Janne Halonen, Jussi Jaakonaho, Kalle Kalima, Timo Kämäräinen, Marzi Nyman, Jukka Orma, Markus Pesonen, Jarmo Saari and Teemu Viinikainen.
As one might imagine, the forms of expression range all over the place, and this is one time where met expectations don’t dampen the excitement of the experience. The swirling rapture of dissonance on his duet with Markus Pesonen leads delightfully to the storybook changes of a duet with Teemu Viinikainen. Berghäll’s tenor sax on the former accentuates the edge and his use of soprano on the latter enhances the dreamy lyricism.
The upbeat dancing motion of the duet with Jarmo Saari and rock n’ roll edge of the duet with Marzi Nyman provide nice balance with those collaborations that lead more to contemplation like Berghäll’s duets with pedal steel guitarist Olli Haavisto and the album’s closing track “Absence” with Jussi Jaakonaho. And on an album with all kinds of lovely surprises, none resonates greater than the haunting Frisellian sound captured by the duet with Kalle Kalima.
It’s remarkable how distinct each track is one from the other while still sounding part of the same focused recording. It’s an album overflowing with strong characteristics, but never to the point where the qualities of one eclipse those of other, subtler tones.
In addition to the piano-themed first album and this guitar-themed sophomore release, the third installment has been hinted as having a world music theme, with the fourth still under wraps. In the meantime, definitely scoop this one up. I’m really thrilled with this recording and can’t get enough of it.
http://www.facebook.com/joakimberghall/posts/393836627438167
http://www.facebook.com/joakimberghall/posts/394333550721808
http://www.facebook.com/joakimberghall/posts/395876190567544
http://www.facebook.com/joakimberghall/posts/402515786570251

Состав

Joakim Berghäll: alto, soprano, tenor & baritone saxes, bass clarinet;
Markus Pesonen, Teemu Viinikainen, Jarmo Saari, Timo Kämäräinen, Marzi Nyman, Kalle Kalima, Janne Halonen, Jukka Orma: electric guitar;
Olli Haavisto: pedal steel guitar;
Jussi Jaakonaho: baritone guitar


[islamvillage.com]_t_5658923.torrent
Торрент: Зарегистрирован ·  [ 2019-01-06 19:01 ] ·  b683e0090d63f99ef55d526b1e313efdc20ad377

23 KB

Статус: проверено
Скачан: 0 раз
Размер: 282 MB
Оценка: 
(Голосов: 0)
Сказали спасибо: 0  Спасибо
Похожие темы
[Профиль]    [ЛС]
Показать сообщения:    
Ответить на тему

Текущее время: Сегодня 22:05

Часовой пояс: GMT + 7



Вы не можете начинать темы
Вы не можете отвечать на сообщения
Вы не можете редактировать свои сообщения
Вы не можете удалять свои сообщения
Вы не можете голосовать в опросах
Вы не можете прикреплять файлы к сообщениям
Вы можете скачивать файлы


Máy bán hàng | Eastor (44) | Open Camera v1.38 APK Premium