(Vocal Jazz, Christmas) [CD] Frank Sinatra - Christmas Dreaming - 1987, FLAC (tracks+.cue), lossless

Ответить на тему
Статистика раздачи [Обновить пиров]
Размер:  107 MB   |    Зарегистрирован:  9 дней   |    Скачан:  0 раз

Полного источника не было: Никогда

 
   
 
 
 
Автор Сообщение

islamvillage.com

Создавать темы 06-Янв-2019 19:27

[Цитировать]

Frank Sinatra - Christmas Dreaming
Жанр: Vocal Jazz, Christmas
Носитель: CD
Страна-производитель диска (релиза): США
Год издания: 1987
Издатель (лейбл): Columbia
Номер по каталогу: CK 40707
Аудиокодек: FLAC (*.flac)
Тип рипа: tracks+.cue
Битрейт аудио: lossless
Продолжительность: 32:42
Источник (релизер): cobaltc4s
Наличие сканов в содержимом раздачи: нет
Треклист:
01. White Christmas (3:20)
02. Santa Claus Is Comin' to Town (2:35)
03. Christmas Dreaming (3:00)
04. Let It Snow! Let It Snow! Let It Snow! (2:36)
05. Have Yourself a Merry Little Christmas (2:40)
06. White Christmas (3:25)
07. Jingle Bells (2:37)
08. It Came Upon a Midnight Clear (3:29)
09. O Little Town of Bethlehem (3:06)
10. Adeste Fideles (O Come All Ye Faithful) (2:39)
11. Silent Night, Holy Night (3:15)

Лог создания рипа

Exact Audio Copy V1.3 from 2. September 2016
EAC extraction logfile from 17. September 2018, 13:59
Frank Sinatra / Christmas Dreaming
Used drive : TSSTcorpDVD+-RW SN-208BB Adapter: 1 ID: 0
Read mode : SecureUtilize accurate stream : YesDefeat audio cache : YesMake use of C2 pointers : No
Read offset correction : 6Overread into Lead-In and Lead-Out : NoFill up missing offset samples with silence : YesDelete leading and trailing silent blocks : NoNull samples used in CRC calculations : YesUsed interface : Native Win32 interface for Win NT & 2000Gap handling : Appended to previous track
Used output format : User Defined EncoderSelected bitrate : 1024 kBit/sQuality : HighAdd ID3 tag : NoCommand line compressor : C:\Program Files (x86)\Exact Audio Copy\FLAC\FLAC.EXEAdditional command line options : -6 -V -T "ARTIST=%artist%" -T "TITLE=%title%" -T "ALBUM=%albumtitle%" -T "DATE=%year%" -T "TRACKNUMBER=%tracknr%" -T "GENRE=%genre%" -T "COMMENT=%comment%" -T "BAND=%albuminterpret%" -T "ALBUMARTIST=%albuminterpret%" -T "COMPOSER=%composer%" %haslyrics%--tag-from-file=LYRICS="%lyricsfile%"%haslyrics% -T "DISCNUMBER=%cdnumber%" -T "TOTALDISCS=%totalcds%" -T "TOTALTRACKS=%numtracks%" %hascover%--picture="%coverfile%"%hascover% %source% -o %dest%
TOC of the extracted CD
Track | Start | Length | Start sector | End sector --------------------------------------------------------- 1 | 0:00.00 | 3:20.25 | 0 | 15024 2 | 3:20.25 | 2:35.05 | 15025 | 26654 3 | 5:55.30 | 3:00.35 | 26655 | 40189 4 | 8:55.65 | 2:35.58 | 40190 | 51872 5 | 11:31.48 | 2:39.55 | 51873 | 63852 6 | 14:11.28 | 3:24.45 | 63853 | 79197 7 | 17:35.73 | 2:37.17 | 79198 | 90989 8 | 20:13.15 | 3:29.05 | 90990 | 106669 9 | 23:42.20 | 3:05.60 | 106670 | 120604 10 | 26:48.05 | 2:38.40 | 120605 | 132494 11 | 29:26.45 | 3:15.18 | 132495 | 147137
Track 1
Filename Y:\FLAC\Frank Sinatra - Christmas Dreaming\01 White Christmas.wav
Pre-gap length 0:00:02.00
Peak level 52.1 % Extraction speed 2.5 X Track quality 100.0 % Test CRC 7B84889D Copy CRC 7B84889D Accurately ripped (confidence 11) [BA2EA862] (AR v2) Copy OK
Track 2
Filename Y:\FLAC\Frank Sinatra - Christmas Dreaming\02 Santa Claus Is Comin' To Town.wav
Pre-gap length 0:00:02.62
Peak level 63.8 % Extraction speed 2.6 X Track quality 100.0 % Test CRC CA204350 Copy CRC CA204350 Accurately ripped (confidence 11) [05A9EA93] (AR v2) Copy OK
Track 3
Filename Y:\FLAC\Frank Sinatra - Christmas Dreaming\03 Christmas Dreaming.wav
Pre-gap length 0:00:02.62
Peak level 55.7 % Extraction speed 2.9 X Track quality 100.0 % Test CRC 9CE3B32E Copy CRC 9CE3B32E Accurately ripped (confidence 11) [7A961FAE] (AR v2) Copy OK
Track 4
Filename Y:\FLAC\Frank Sinatra - Christmas Dreaming\04 Let It Snow! Let It Snow! Let It Snow!.wav
Pre-gap length 0:00:02.62
Peak level 62.6 % Extraction speed 3.0 X Track quality 100.0 % Test CRC 40DF1407 Copy CRC 40DF1407 Accurately ripped (confidence 11) [FD2635D2] (AR v2) Copy OK
Track 5
Filename Y:\FLAC\Frank Sinatra - Christmas Dreaming\05 Have Yourself A Merry Little Christmas.wav
Pre-gap length 0:00:02.64
Peak level 60.2 % Extraction speed 3.1 X Track quality 100.0 % Test CRC 0AC1221F Copy CRC 0AC1221F Accurately ripped (confidence 11) [7A2D85AE] (AR v2) Copy OK
Track 6
Filename Y:\FLAC\Frank Sinatra - Christmas Dreaming\06 White Christmas.wav
Pre-gap length 0:00:02.64
Peak level 51.4 % Extraction speed 3.4 X Track quality 100.0 % Test CRC 6D485F77 Copy CRC 6D485F77 Accurately ripped (confidence 11) [705D2791] (AR v2) Copy OK
Track 7
Filename Y:\FLAC\Frank Sinatra - Christmas Dreaming\07 Jingle Bells.wav
Pre-gap length 0:00:02.64
Peak level 66.4 % Extraction speed 3.4 X Track quality 100.0 % Test CRC 6A99E59F Copy CRC 6A99E59F Accurately ripped (confidence 11) [19D0B837] (AR v2) Copy OK
Track 8
Filename Y:\FLAC\Frank Sinatra - Christmas Dreaming\08 It Came Upon A Midnight Clear.wav
Pre-gap length 0:00:02.62
Peak level 50.5 % Extraction speed 3.7 X Track quality 100.0 % Test CRC 1EEADD10 Copy CRC 1EEADD10 Accurately ripped (confidence 11) [20663C38] (AR v2) Copy OK
Track 9
Filename Y:\FLAC\Frank Sinatra - Christmas Dreaming\09 O Little Town Of Bethlehem.wav
Pre-gap length 0:00:02.62
Peak level 48.7 % Extraction speed 3.8 X Track quality 100.0 % Test CRC 64FEE0DC Copy CRC 64FEE0DC Accurately ripped (confidence 11) [E0F05066] (AR v2) Copy OK
Track 10
Filename Y:\FLAC\Frank Sinatra - Christmas Dreaming\10 Adeste Fideles (O Come All Ye Faithful).wav
Pre-gap length 0:00:02.62
Peak level 48.7 % Extraction speed 3.9 X Track quality 100.0 % Test CRC 5258E99A Copy CRC 5258E99A Accurately ripped (confidence 11) [6BD69AA6] (AR v2) Copy OK
Track 11
Filename Y:\FLAC\Frank Sinatra - Christmas Dreaming\11 Silent Night, Holy Night.wav
Pre-gap length 0:00:02.40
Peak level 58.9 % Extraction speed 3.2 X Track quality 99.9 % Test CRC 0EBF86DD Copy CRC 0EBF86DD Accurately ripped (confidence 11) [06FC6CAB] (AR v2) Copy OK
All tracks accurately ripped
No errors occurred
End of status report
---- CUETools DB Plugin V2.1.6
[CTDB TOCID: l.xWWAOPJnZy0r4eUDVtkfz2XIU-] foundSubmit result: l.xWWAOPJnZy0r4eUDVtkfz2XIU- has been confirmedTrack | CTDB Status 1 | (12/12) Accurately ripped 2 | (12/12) Accurately ripped 3 | (12/12) Accurately ripped 4 | (12/12) Accurately ripped 5 | (12/12) Accurately ripped 6 | (12/12) Accurately ripped 7 | (12/12) Accurately ripped 8 | (12/12) Accurately ripped 9 | (12/12) Accurately ripped 10 | (12/12) Accurately ripped 11 | (12/12) Accurately ripped
==== Log checksum 7DFCBC95B12B3980C1337DEA53A8AB4F47A4C2009A85815850613BE0452E8435 ====

Содержание индексной карты (.CUE)

REM GENRE ChristmasREM DATE 1987REM DISCID 8507A90BREM COMMENT "ExactAudioCopy v1.3"PERFORMER "Frank Sinatra"TITLE "Christmas Dreaming"FILE "01 - White Christmas.wav" WAVE TRACK 01 AUDIO TITLE "White Christmas" PERFORMER "Frank Sinatra" INDEX 01 00:00:00 TRACK 02 AUDIO TITLE "Santa Claus Is Comin' to Town" PERFORMER "Frank Sinatra" INDEX 00 03:17:53FILE "02 - Santa Claus Is Comin' to Town.wav" WAVE INDEX 01 00:00:00 TRACK 03 AUDIO TITLE "Christmas Dreaming" PERFORMER "Frank Sinatra" INDEX 00 02:32:33FILE "03 - Christmas Dreaming.wav" WAVE INDEX 01 00:00:00 TRACK 04 AUDIO TITLE "Let It Snow! Let It Snow! Let It Snow!" PERFORMER "Frank Sinatra" INDEX 00 02:57:63FILE "04 - Let It Snow! Let It Snow! Let It Snow!.wav" WAVE INDEX 01 00:00:00 TRACK 05 AUDIO TITLE "Have Yourself a Merry Little Christmas" PERFORMER "Frank Sinatra" INDEX 00 02:33:10FILE "05 - Have Yourself a Merry Little Christmas.wav" WAVE INDEX 01 00:00:00 TRACK 06 AUDIO TITLE "White Christmas" PERFORMER "Frank Sinatra" INDEX 00 02:37:07FILE "06 - White Christmas.wav" WAVE INDEX 01 00:00:00 TRACK 07 AUDIO TITLE "Jingle Bells" PERFORMER "Frank Sinatra" INDEX 00 03:21:72FILE "07 - Jingle Bells.wav" WAVE INDEX 01 00:00:00 TRACK 08 AUDIO TITLE "It Came Upon a Midnight Clear" PERFORMER "Frank Sinatra" INDEX 00 02:34:45FILE "08 - It Came Upon a Midnight Clear.wav" WAVE INDEX 01 00:00:00 TRACK 09 AUDIO TITLE "O Little Town of Bethlehem" PERFORMER "Frank Sinatra" INDEX 00 03:26:33FILE "09 - O Little Town of Bethlehem.wav" WAVE INDEX 01 00:00:00 TRACK 10 AUDIO TITLE "Adeste Fideles (O Come All Ye Faithful)" PERFORMER "Frank Sinatra" INDEX 00 03:03:13FILE "10 - Adeste Fideles (O Come All Ye Faithful).wav" WAVE INDEX 01 00:00:00 TRACK 11 AUDIO TITLE "Silent Night, Holy Night" PERFORMER "Frank Sinatra" INDEX 00 02:36:10FILE "11 - Silent Night, Holy Night.wav" WAVE INDEX 01 00:00:00

Отчет CUETools

[CUETools log; Date: 25.12.2018 20:49:50; Version: 2.1.6][CTDB TOCID: l.xWWAOPJnZy0r4eUDVtkfz2XIU-] found.Track | CTDB Status 1 | (14/14) Accurately ripped 2 | (14/14) Accurately ripped 3 | (14/14) Accurately ripped 4 | (14/14) Accurately ripped 5 | (14/14) Accurately ripped 6 | (14/14) Accurately ripped 7 | (14/14) Accurately ripped 8 | (14/14) Accurately ripped 9 | (14/14) Accurately ripped 10 | (14/14) Accurately ripped 11 | (14/14) Accurately ripped[AccurateRip ID: 000d58c4-0073bbea-8507a90b] found.Track [ CRC | V2 ] Status 01 [0e37ef01|ba2ea862] (04+11/19) Accurately ripped 02 [f6a5d15a|05a9ea93] (04+11/19) Accurately ripped 03 [6ce5c02a|7a961fae] (05+11/20) Accurately ripped 04 [72c3f846|fd2635d2] (04+11/19) Accurately ripped 05 [e41e7ada|7a2d85ae] (04+11/19) Accurately ripped 06 [214b789c|705d2791] (04+11/19) Accurately ripped 07 [952f4dc8|19d0b837] (04+11/19) Accurately ripped 08 [462227c4|20663c38] (04+11/19) Accurately ripped 09 [32a23b2c|e0f05066] (04+11/19) Accurately ripped 10 [f55eb82b|6bd69aa6] (04+11/19) Accurately ripped 11 [659f3068|06fc6cab] (04+11/19) Accurately rippedOffsetted by 21: 01 [c05f7a65] (02/19) Accurately ripped 02 [3160c423] (02/19) Accurately ripped 03 [628e4301] (02/20) Accurately ripped 04 [2182eca9] (02/19) Accurately ripped 05 [94d9b244] (02/19) Accurately ripped 06 [744e58e0] (02/19) Accurately ripped 07 [c71775e7] (02/19) Accurately ripped 08 [d4627489] (02/19) Accurately ripped 09 [22c4371d] (02/19) Accurately ripped 10 [9163635d] (02/19) Accurately ripped 11 [0a95f077] (02/19) Accurately ripped
Track Peak [ CRC32 ] [W/O NULL] [ LOG ] -- 66,4 [3794E60E] [1DB20268] 01 52,1 [7B84889D] [92150838] CRC32 02 63,8 [CA204350] [63EE1E8D] CRC32 03 55,7 [9CE3B32E] [9A264C81] CRC32 04 62,6 [40DF1407] [906B1DE9] CRC32 05 60,2 [0AC1221F] [97E87AEB] CRC32 06 51,4 [6D485F77] [85DE00A4] CRC32 07 66,4 [6A99E59F] [CA82E5D7] CRC32 08 50,5 [1EEADD10] [456DEA8A] CRC32 09 48,7 [64FEE0DC] [E9A080BC] CRC32 10 48,7 [5258E99A] [B508E9D2] CRC32 11 58,9 [0EBF86DD] [D360DA4E] CRC32


[islamvillage.com]_t_5664962.torrent
Торрент: Зарегистрирован ·  [ 2019-01-06 19:01 ] ·  14b3f779f391b45fddff4bcf2d1c6f6243ced353

18 KB

Статус: проверено
Скачан: 0 раз
Размер: 107 MB
Оценка: 
(Голосов: 0)
Сказали спасибо: 0  Спасибо
Похожие темы
[Профиль]    [ЛС]
Показать сообщения:    
Ответить на тему

Текущее время: Сегодня 14:56

Часовой пояс: GMT + 7



Вы не можете начинать темы
Вы не можете отвечать на сообщения
Вы не можете редактировать свои сообщения
Вы не можете удалять свои сообщения
Вы не можете голосовать в опросах
Вы не можете прикреплять файлы к сообщениям
Вы можете скачивать файлы


扫一扫安装APKPure 客户端 | Kubikiri Cycle: Aoiro Savant to Zaregototsukai English Subbed | Watch movie