(Vocal Jazz) [CD] Marion Montgomery and Mart Rodger Manchester Jazz - Makin\' Whoopee - 1993, FLAC (image+.cue), lossless

Ответить на тему
Статистика раздачи [Обновить пиров]
Размер:  460 MB   |    Зарегистрирован:  9 дней   |    Скачан:  0 раз

Полного источника не было: Никогда

 
   
 
 
 
Автор Сообщение

islamvillage.com

Создавать темы 06-Янв-2019 19:27

[Цитировать]

Marion Montgomery and Mart Rodger Manchester Jazz / Makin' Whoopee
Жанр: Vocal Jazz
Носитель: CD
Страна-производитель диска (релиза): UK
Год издания: 1993
Издатель (лейбл): Bowstone Records
Номер по каталогу: OWSCD 2602
Страна исполнителя (группы): UK
Аудиокодек: FLAC (*.flac)
Тип рипа: image+.cue
Битрейт аудио: lossless
Продолжительность: 1:14:18
Источник (релизер): nkomissar
Наличие сканов в содержимом раздачи: да
Треклист:
1. Way Down Yonder In New Orleans
2. You Took Advantage Of Me
3. Mean To Me
4. Shake It And Break It
5. Kansas City Man Blues
6. If I Ever Cease To Love
7. I Get The Blues When It Rains
8. Sobbin’ Blues
9. Dinah
10. After You’ve Gone
11. Then It Changed
12. Canal Street Blues
13. My Melancholy Baby/You’re A Sweetheart
14. I’m Crazy ‘Bout My Baby vocal Mart Rodger
15. Makin’ Whoopee
16. Froggie Moore
17. Love Me Or Leave Me
18. Riverboat Shuffle

Лог создания рипа

Exact Audio Copy V1.3 from 2. September 2016
Отчёт EAC об извлечении, выполненном 3. сентября 2018, 10:09
Marion Montgomery / Makin' Whoopee
Дисковод: hp DVDRAM GT80N Adapter: 1 ID: 0
Режим чтения : ДостоверностьИспользование точного потока : ДаОтключение кэша аудио : ДаИспользование указателей C2 : Нет
Коррекция смещения при чтении : 102Способность читать области Lead-in и Lead-out : НетЗаполнение пропущенных сэмплов тишиной : ДаУдаление блоков с тишиной в начале и конце : НетПри вычислениях CRC использовались нулевые сэмплы : ДаИнтерфейс : Встроенный Win32-интерфейс для Win NT/2000
Выходной формат : Пользовательский кодировщикВыбранный битрейт : 128 kBit/sКачество : ВысокийДобавление ID3-тега : НетУтилита сжатия : C:\Program Files (x86)\Exact Audio Copy\Flac\flac.exeДополнительные параметры : -V -8 -T "Date=%year%" -T "Genre=%genre%" %source%
TOC извлечённого CD
Трек | Старт | Длительность | Начальный сектор | Конечный сектор --------------------------------------------------------------------- 1 | 0:00.32 | 3:29.65 | 32 | 15771 2 | 3:30.22 | 4:35.35 | 15772 | 36431 3 | 8:05.57 | 4:50.53 | 36432 | 58234 4 | 12:56.35 | 3:51.47 | 58235 | 75606 5 | 16:48.07 | 3:37.03 | 75607 | 91884 6 | 20:25.10 | 2:48.65 | 91885 | 104549 7 | 23:14.00 | 4:26.67 | 104550 | 124566 8 | 27:40.67 | 5:50.38 | 124567 | 150854 9 | 33:31.30 | 3:53.72 | 150855 | 168401 10 | 37:25.27 | 3:11.70 | 168402 | 182796 11 | 40:37.22 | 4:10.65 | 182797 | 201611 12 | 44:48.12 | 3:16.20 | 201612 | 216331 13 | 48:04.32 | 4:52.38 | 216332 | 238269 14 | 52:56.70 | 4:25.67 | 238270 | 258211 15 | 57:22.62 | 4:42.53 | 258212 | 279414 16 | 62:05.40 | 3:53.55 | 279415 | 296944 17 | 65:59.20 | 3:47.72 | 296945 | 314041 18 | 69:47.17 | 4:31.25 | 314042 | 334391
Характеристики диапазона извлечения и сообщения об ошибках
Выбранный диапазон
Имя файла D:\Music\Marion Montgomery - Makin' Whoopee.wav
Пиковый уровень 94.6 % Скорость извлечения 4.5 X Качество диапазона 100.0 % CRC теста 3B2C78A0 CRC копии 3B2C78A0 Копирование... OK
Ошибок не произошло
AccurateRip: сводка
Трек 1 : извлечено точно (доверие 1) [FA8D95A3] (AR v1)Трек 2 : извлечено точно (доверие 1) [6446E84B] (AR v1)Трек 3 : извлечено точно (доверие 1) [2B42A33C] (AR v1)Трек 4 : извлечено точно (доверие 1) [1A47BC9B] (AR v1)Трек 5 : извлечено точно (доверие 1) [BF9F6742] (AR v1)Трек 6 : извлечено точно (доверие 1) [3434811F] (AR v1)Трек 7 : извлечено точно (доверие 1) [89A1803C] (AR v1)Трек 8 : извлечено точно (доверие 1) [97C7A772] (AR v1)Трек 9 : извлечено точно (доверие 1) [05BA65DF] (AR v1)Трек 10 : извлечено точно (доверие 1) [28246287] (AR v1)Трек 11 : извлечено точно (доверие 1) [E5E28DB7] (AR v1)Трек 12 : извлечено точно (доверие 1) [2804D78F] (AR v1)Трек 13 : извлечено точно (доверие 1) [4CC68E21] (AR v1)Трек 14 : извлечено точно (доверие 1) [3C87FB39] (AR v1)Трек 15 : извлечено точно (доверие 1) [63E4218F] (AR v1)Трек 16 : извлечено точно (доверие 1) [C1743B83] (AR v1)Трек 17 : извлечено точно (доверие 1) [3FAC841B] (AR v1)Трек 18 : извлечено точно (доверие 1) [D223847E] (AR v1)
Все треки извлечены точно
Конец отчёта
==== Контрольная сумма отчёта 7D01646FF933B592D35B83962999EA45C7C6FA5D64F0BC4E8A85D43B73DC6C48 ====

Содержание индексной карты (.CUE)

REM GENRE OtherREM DISCID 0F116A12REM COMMENT "ExactAudioCopy v1.3"PERFORMER "Marion Montgomery"TITLE "Makin' Whoopee"REM COMPOSER ""FILE "Marion Montgomery - Makin' Whoopee.flac" WAVE TRACK 01 AUDIO TITLE "Way Down Yonder in New Orleans" PERFORMER "Marion Montgomery" REM COMPOSER "" INDEX 00 00:00:00 INDEX 01 00:00:32 TRACK 02 AUDIO TITLE "You Took Advantage Of Me" PERFORMER "Marion Montgomery" REM COMPOSER "" INDEX 00 03:27:30 INDEX 01 03:30:22 TRACK 03 AUDIO TITLE "Mean to Me" PERFORMER "Marion Montgomery" REM COMPOSER "" INDEX 00 08:02:55 INDEX 01 08:05:57 TRACK 04 AUDIO TITLE "Shake It & Break It" PERFORMER "Marion Montgomery" REM COMPOSER "" INDEX 00 12:55:10 INDEX 01 12:56:35 TRACK 05 AUDIO TITLE "Kansas City Man Blues" PERFORMER "Marion Montgomery" REM COMPOSER "" INDEX 00 16:46:22 INDEX 01 16:48:07 TRACK 06 AUDIO TITLE "If I Ever Cease To Love" PERFORMER "Marion Montgomery" REM COMPOSER "" INDEX 00 20:22:67 INDEX 01 20:25:10 TRACK 07 AUDIO TITLE "I Get the Blues When It Rains" PERFORMER "Marion Montgomery" REM COMPOSER "" INDEX 00 23:12:02 INDEX 01 23:14:00 TRACK 08 AUDIO TITLE "Sobbin' Blues" PERFORMER "Marion Montgomery" REM COMPOSER "" INDEX 00 27:39:40 INDEX 01 27:40:67 TRACK 09 AUDIO TITLE "Dinah" PERFORMER "Marion Montgomery" REM COMPOSER "" INDEX 00 33:29:65 INDEX 01 33:31:30 TRACK 10 AUDIO TITLE "After You've Gone" PERFORMER "Marion Montgomery" REM COMPOSER "" INDEX 00 37:20:40 INDEX 01 37:25:27 TRACK 11 AUDIO TITLE "Then It Changed" PERFORMER "Marion Montgomery" REM COMPOSER "" INDEX 00 40:36:07 INDEX 01 40:37:22 TRACK 12 AUDIO TITLE "Canal Street Blues" PERFORMER "Marion Montgomery" REM COMPOSER "" INDEX 00 44:46:00 INDEX 01 44:48:12 TRACK 13 AUDIO TITLE "My Meloncholy Baby" PERFORMER "Marion Montgomery" REM COMPOSER "" INDEX 00 48:02:72 INDEX 01 48:04:32 TRACK 14 AUDIO TITLE "I'm Crazy About My Baby" PERFORMER "Marion Montgomery" REM COMPOSER "" INDEX 00 52:55:20 INDEX 01 52:56:70 TRACK 15 AUDIO TITLE "Makin' Whoopee" PERFORMER "Marion Montgomery" REM COMPOSER "" INDEX 00 57:20:40 INDEX 01 57:22:62 TRACK 16 AUDIO TITLE "Froggie Moore" PERFORMER "Marion Montgomery" REM COMPOSER "" INDEX 01 62:05:40 TRACK 17 AUDIO TITLE "Love Me Or Leave Me" PERFORMER "Marion Montgomery" REM COMPOSER "" INDEX 01 65:59:20 TRACK 18 AUDIO TITLE "Riverboat Shuffle" PERFORMER "Marion Montgomery" REM COMPOSER "" INDEX 01 69:47:17

Состав

Marion Montgomery - Vocals
Mart Roger - Clarinet
Allan Dent - Trumpet
Terry Brunt - Trombone
Alec Collins - Piano
Tim Roberts - Banjo
Colin Smith - Bass
Pete Staples - Drums


[islamvillage.com]_t_5663231.torrent
Торрент: Зарегистрирован ·  [ 2019-01-06 19:01 ] ·  c99268c8506ea7324c877e5acd0885da48a65f6b

37 KB

Статус: проверено
Скачан: 0 раз
Размер: 460 MB
Оценка: 
(Голосов: 0)
Сказали спасибо: 0  Спасибо
Похожие темы
[Профиль]    [ЛС]
Показать сообщения:    
Ответить на тему

Текущее время: Сегодня 15:42

Часовой пояс: GMT + 7



Вы не можете начинать темы
Вы не можете отвечать на сообщения
Вы не можете редактировать свои сообщения
Вы не можете удалять свои сообщения
Вы не можете голосовать в опросах
Вы не можете прикреплять файлы к сообщениям
Вы можете скачивать файлы


Sousei no Onmyouji | The Disappearance | Dvd *x-Men