(Vocal Jazz/Soul/R&B) [CD] Natalie Cole - Collection - 12 albums (13 CD) - 1987-2013, FLAC (image+.cue), lossless

Ответить на тему
Статистика раздачи [Обновить пиров]
Размер:  5.51 GB   |    Зарегистрирован:  11 дней   |    Скачан:  0 раз

Полного источника не было: Никогда

 
   
 
 
 
Автор Сообщение

islamvillage.com

Создавать темы 06-Янв-2019 19:28

[Цитировать]

Natalie Cole - Collection
Жанр: Vocal Jazz/Soul/R&B
Носитель: CD
Страна исполнителя (группы): USA
Аудиокодек: FLAC (*.flac)
Тип рипа: image+.cue
Битрейт аудио: lossless
Продолжительность: 12:02:08
Источник (релизер): свои рипы
Наличие сканов в содержимом раздачи: да

1987 - Everlasting

Страна-производитель диска: Germany
Издатель (лейбл): Elektra
Номер по каталогу: 7559-61114-2
Продолжительность: 54:32.73
Треклист:
01. Everlasting [0:05:18.22]
02. Jump Start [0:06:28.40]
03. The Urge To Merge [0:04:10.97]
04. Split Decision [0:04:14.29]
05. When I Fall In Love [0:05:08.64]
06. Pink Cadillac [0:04:29.02]
07. I Live For Your Love [0:04:29.24]
08. In My Reality [0:05:21.69]
09. I'm The One [0:05:21.53]
10. More Than The Stars [0:04:38.57]
11. What I Must Do [0:04:52.13]

Лог создания рипа

Exact Audio Copy V1.0 beta 3 from 29. August 2011
Отчёт EAC об извлечении, выполненном 2. февраля 2013, 19:35
Natalie Cole / Everlasting
Дисковод: SONY CD-RW CRX230ED Adapter: 0 ID: 1
Режим чтения : ДостоверностьИспользование точного потока : ДаОтключение кэша аудио : ДаИспользование указателей C2 : Нет
Коррекция смещения при чтении : 6Способность читать области Lead-in и Lead-out : НетЗаполнение пропущенных сэмплов тишиной : ДаУдаление блоков с тишиной в начале и конце : НетПри вычислениях CRC использовались нулевые сэмплы : ДаИнтерфейс : Установленный внешний ASPI-интерфейс
Выходной формат : Внутренние WAV-операцииФормат файла сэмплов : 44.100 Гц; 16 бит; стерео
TOC извлечённого CD
Трек | Старт | Длительность | Начальный сектор | Конечный сектор --------------------------------------------------------------------- 1 | 0:00.00 | 5:18.17 | 0 | 23866 2 | 5:18.17 | 6:28.30 | 23867 | 52996 3 | 11:46.47 | 4:10.73 | 52997 | 71819 4 | 15:57.45 | 4:14.22 | 71820 | 90891 5 | 20:11.67 | 5:08.48 | 90892 | 114039 6 | 25:20.40 | 4:29.02 | 114040 | 134216 7 | 29:49.42 | 4:29.18 | 134217 | 154409 8 | 34:18.60 | 5:21.52 | 154410 | 178536 9 | 39:40.37 | 5:21.40 | 178537 | 202651 10 | 45:02.02 | 4:38.43 | 202652 | 223544 11 | 49:40.45 | 4:52.10 | 223545 | 245454
Характеристики диапазона извлечения и сообщения об ошибках
Выбранный диапазон
Имя файла E:\MusicCD\Torrent\Natalie Cole\Natalie Cole - Everlasting\Natalie Cole - Everlasting.wav
Пиковый уровень 100.0 % Скорость извлечения 7.7 X Качество диапазона 100.0 % CRC теста 35F73457 CRC копии 35F73457 Копирование... OK
Ошибок не произошло
AccurateRip: сводка
Трек 1 : извлечено точно (доверие 21) [A4CEB2F8] (AR v1)Трек 2 : извлечено точно (доверие 20) [1259CA33] (AR v1)Трек 3 : извлечено точно (доверие 21) [226F5684] (AR v1)Трек 4 : извлечено точно (доверие 21) [DC5F22FF] (AR v1)Трек 5 : извлечено точно (доверие 21) [4F4BD9C7] (AR v1)Трек 6 : извлечено точно (доверие 21) [C25E0CE2] (AR v1)Трек 7 : извлечено точно (доверие 21) [2F142927] (AR v1)Трек 8 : извлечено точно (доверие 21) [E4ACAC80] (AR v1)Трек 9 : извлечено точно (доверие 21) [45AE32EF] (AR v1)Трек 10 : извлечено точно (доверие 21) [C2767C21] (AR v1)Трек 11 : извлечено точно (доверие 20) [F19FEA06] (AR v1)
Все треки извлечены точно
Конец отчёта
==== Контрольная сумма отчёта 4CD51110DAE1D2E2CF89FBCA4DE115AA6A7AF03B4F718D5EE16D397BC7189926 ====

Matrix

1987 - Everlasting (UK version)

Страна-производитель диска: UK
Издатель (лейбл): EMI-Manhattan Records
Номер по каталогу: CDP 7 90982 2
Продолжительность: 53:25.66
Треклист:
01. Everlasting (Single Version) [0:04:27.82]
02. Jump Start [0:06:29.80]
03. The Urge To Merge [0:04:11.86]
04. Split Decision [0:04:15.13]
05. When I Fall In Love [0:05:08.84]
06. Pink Cadillac (Turbo Mix) [0:04:08.16]
07. I Live For Your Love [0:04:28.73]
08. In My Reality [0:05:23.20]
09. I'm The One [0:05:22.44]
10. More Than The Stars [0:04:38.26]
11. What I Must Do [0:04:51.40]

Лог создания рипа

Exact Audio Copy V1.0 beta 3 from 29. August 2011
Отчёт EAC об извлечении, выполненном 2. февраля 2013, 20:31
Natalie Cole / Everlasting (UK version)
Дисковод: SONY CD-RW CRX230ED Adapter: 0 ID: 1
Режим чтения : ДостоверностьИспользование точного потока : ДаОтключение кэша аудио : ДаИспользование указателей C2 : Нет
Коррекция смещения при чтении : 6Способность читать области Lead-in и Lead-out : НетЗаполнение пропущенных сэмплов тишиной : ДаУдаление блоков с тишиной в начале и конце : НетПри вычислениях CRC использовались нулевые сэмплы : ДаИнтерфейс : Установленный внешний ASPI-интерфейс
Выходной формат : Внутренние WAV-операцииФормат файла сэмплов : 44.100 Гц; 16 бит; стерео
TOC извлечённого CD
Трек | Старт | Длительность | Начальный сектор | Конечный сектор --------------------------------------------------------------------- 1 | 0:00.33 | 4:27.62 | 33 | 20119 2 | 4:28.20 | 6:29.60 | 20120 | 49354 3 | 10:58.05 | 4:11.65 | 49355 | 68244 4 | 15:09.70 | 4:15.10 | 68245 | 87379 5 | 19:25.05 | 5:08.63 | 87380 | 110542 6 | 24:33.68 | 4:08.12 | 110543 | 129154 7 | 28:42.05 | 4:28.55 | 129155 | 149309 8 | 33:10.60 | 5:23.15 | 149310 | 173549 9 | 38:34.00 | 5:22.33 | 173550 | 197732 10 | 43:56.33 | 4:38.20 | 197733 | 218602 11 | 48:34.53 | 4:51.30 | 218603 | 240457
Характеристики диапазона извлечения и сообщения об ошибках
Выбранный диапазон
Имя файла E:\MusicCD\Torrent\Natalie Cole\Natalie Cole - Everlasting (UK version)\Natalie Cole - Everlasting (UK version).wav
Пиковый уровень 100.0 % Скорость извлечения 5.8 X Качество диапазона 99.9 % CRC теста E1145282 CRC копии E1145282 Копирование... OK
Ошибок не произошло
AccurateRip: сводка
Трек 1 : извлечено точно (доверие 3) [348B77AC] (AR v1)Трек 2 : извлечено точно (доверие 3) [52AB50AF] (AR v1)Трек 3 : извлечено точно (доверие 3) [D6FFDE37] (AR v1)Трек 4 : извлечено точно (доверие 3) [DAB8EDF6] (AR v1)Трек 5 : извлечено точно (доверие 3) [9A0CDDE3] (AR v1)Трек 6 : извлечено точно (доверие 3) [99A839F4] (AR v1)Трек 7 : извлечено точно (доверие 3) [C4C6552F] (AR v1)Трек 8 : извлечено точно (доверие 3) [77D48E7F] (AR v1)Трек 9 : извлечено точно (доверие 3) [6F7CDEF2] (AR v1)Трек 10 : извлечено точно (доверие 3) [BE31378D] (AR v1)Трек 11 : извлечено точно (доверие 3) [CCE39A05] (AR v1)
Все треки извлечены точно
Конец отчёта
==== Контрольная сумма отчёта ABA79F9B35C203EFCB241E806AD6253C75D05B051204E2A3B0CE5A8E6590736A ====

Matrix

1989 - Good To Be Back

Страна-производитель диска: Germany
Издатель (лейбл): Elektra
Номер по каталогу: 7559-61115-2
Продолжительность: 46:58.76
Треклист:
01. Safe [0:03:49.00]
02. As A Matter Of Fact [0:04:00.42]
03. Rest Of The Night [0:04:36.97]
04. Miss You Like Crazy [0:03:56.06]
05. I Do (Duet with Freddie Jackson) [0:03:59.76]
06. Good To Be Back [0:04:21.90]
07. Gonna Make You Mine [0:04:41.89]
08. Starting Over Again [0:04:16.64]
09. Don't Mention My Heartache [0:04:48.20]
10. I Can't Cry [0:04:20.62]
11. Someone's Rockin' My Dreamboat [0:04:07.26]

Лог создания рипа

Exact Audio Copy V1.0 beta 3 from 29. August 2011
Отчёт EAC об извлечении, выполненном 2. февраля 2013, 20:57
Natalie Cole / Good To Be Back
Дисковод: SONY CD-RW CRX230ED Adapter: 0 ID: 1
Режим чтения : ДостоверностьИспользование точного потока : ДаОтключение кэша аудио : ДаИспользование указателей C2 : Нет
Коррекция смещения при чтении : 6Способность читать области Lead-in и Lead-out : НетЗаполнение пропущенных сэмплов тишиной : ДаУдаление блоков с тишиной в начале и конце : НетПри вычислениях CRC использовались нулевые сэмплы : ДаИнтерфейс : Установленный внешний ASPI-интерфейс
Выходной формат : Внутренние WAV-операцииФормат файла сэмплов : 44.100 Гц; 16 бит; стерео
TOC извлечённого CD
Трек | Старт | Длительность | Начальный сектор | Конечный сектор --------------------------------------------------------------------- 1 | 0:00.00 | 3:49.00 | 0 | 17174 2 | 3:49.00 | 4:00.32 | 17175 | 35206 3 | 7:49.32 | 4:36.73 | 35207 | 55979 4 | 12:26.30 | 3:56.05 | 55980 | 73684 5 | 16:22.35 | 3:59.57 | 73685 | 91666 6 | 20:22.17 | 4:21.68 | 91667 | 111309 7 | 24:44.10 | 4:41.67 | 111310 | 132451 8 | 29:26.02 | 4:16.48 | 132452 | 151699 9 | 33:42.50 | 4:48.15 | 151700 | 173314 10 | 38:30.65 | 4:20.47 | 173315 | 192861 11 | 42:51.37 | 4:07.20 | 192862 | 211406
Характеристики диапазона извлечения и сообщения об ошибках
Выбранный диапазон
Имя файла E:\MusicCD\Torrent\Natalie Cole\Natalie Cole - Good To Be Back\Natalie Cole - Good To Be Back.wav
Пиковый уровень 100.0 % Скорость извлечения 7.4 X Качество диапазона 100.0 % CRC теста 7BE9B926 CRC копии 7BE9B926 Копирование... OK
Ошибок не произошло
AccurateRip: сводка
Трек 1 : извлечено точно (доверие 3) [D052D7DA] (AR v2)Трек 2 : извлечено точно (доверие 3) [5EFE4000] (AR v2)Трек 3 : извлечено точно (доверие 3) [7CE52EE7] (AR v2)Трек 4 : извлечено точно (доверие 3) [CAA20E71] (AR v2)Трек 5 : извлечено точно (доверие 3) [1CC3F060] (AR v2)Трек 6 : извлечено точно (доверие 3) [B1294F23] (AR v2)Трек 7 : извлечено точно (доверие 3) [F2FD6ADE] (AR v2)Трек 8 : извлечено точно (доверие 3) [1D1B1B88] (AR v2)Трек 9 : извлечено точно (доверие 3) [A2AB6072] (AR v2)Трек 10 : извлечено точно (доверие 2) [6FAC908A] (AR v2)Трек 11 : извлечено точно (доверие 3) [9129C7A0] (AR v2)
Все треки извлечены точно
Конец отчёта
==== Контрольная сумма отчёта 1A38FB89CB0AC10B93500D88115BF475A58BEC878BE5B466753F797EB0FB85CF ====

Matrix

1991 - Unforgettable With Love

Страна-производитель диска: USA
Издатель (лейбл): Elektra
Номер по каталогу: 9 61049-2
Продолжительность: 1:13:12.93
Треклист:
01. The Very Thought Of You [0:04:16.40]
02. Paper Moon [0:03:25.60]
03. Route 66 [0:03:01.09]
04. Mona Lisa [0:03:46.10]
05. L-O-V-E [0:02:31.82]
06. This Can't Be Love [0:02:14.00]
07. Smile [0:03:38.37]
08. Lush Life [0:04:20.56]
09. That Sunday That Summer [0:03:31.66]
10. Orange Colored Sky [0:02:27.17]
11. A Medley Of: For Sentimental Reasons, Tenderly, Autumn Leaves [0:07:32.93]
12. Straighten Up And Fly Right [0:02:40.42]
13. Avalon [0:01:51.50]
14. Don't Get Around Much Anymore [0:02:34.62]
15. Too Young [0:04:32.70]
16. Nature Boy [0:03:24.33]
17. Darling, Je Vous Aime Beaucoup [0:03:25.16]
18. Almost Like Being In Love [0:02:11.44]
19. Thou Swell [0:01:50.69]
20. Non Dimenticar [0:02:57.50]
21. Our Love Is Here To Stay [0:03:29.86]
22. Unforgettable [0:03:28.93]

Лог создания рипа

Exact Audio Copy V1.0 beta 3 from 29. August 2011
Отчёт EAC об извлечении, выполненном 2. февраля 2013, 21:42
Natalie Cole / Unforgettable With Love
Дисковод: SONY CD-RW CRX230ED Adapter: 0 ID: 1
Режим чтения : ДостоверностьИспользование точного потока : ДаОтключение кэша аудио : ДаИспользование указателей C2 : Нет
Коррекция смещения при чтении : 6Способность читать области Lead-in и Lead-out : НетЗаполнение пропущенных сэмплов тишиной : ДаУдаление блоков с тишиной в начале и конце : НетПри вычислениях CRC использовались нулевые сэмплы : ДаИнтерфейс : Установленный внешний ASPI-интерфейс
Выходной формат : Внутренние WAV-операцииФормат файла сэмплов : 44.100 Гц; 16 бит; стерео
TOC извлечённого CD
Трек | Старт | Длительность | Начальный сектор | Конечный сектор --------------------------------------------------------------------- 1 | 0:00.33 | 4:16.30 | 33 | 19262 2 | 4:16.63 | 3:25.45 | 19263 | 34682 3 | 7:42.33 | 3:01.07 | 34683 | 48264 4 | 10:43.40 | 3:46.08 | 48265 | 65222 5 | 14:29.48 | 2:31.62 | 65223 | 76609 6 | 17:01.35 | 2:14.00 | 76610 | 86659 7 | 19:15.35 | 3:38.28 | 86660 | 103037 8 | 22:53.63 | 4:20.42 | 103038 | 122579 9 | 27:14.30 | 3:31.50 | 122580 | 138454 10 | 30:46.05 | 2:27.13 | 138455 | 149492 11 | 33:13.18 | 7:32.70 | 149493 | 183462 12 | 40:46.13 | 2:40.32 | 183463 | 195494 13 | 43:26.45 | 1:51.38 | 195495 | 203857 14 | 45:18.08 | 2:34.47 | 203858 | 215454 15 | 47:52.55 | 4:32.53 | 215455 | 235907 16 | 52:25.33 | 3:24.25 | 235908 | 251232 17 | 55:49.58 | 3:25.12 | 251233 | 266619 18 | 59:14.70 | 2:11.33 | 266620 | 276477 19 | 61:26.28 | 1:50.52 | 276478 | 284779 20 | 63:17.05 | 2:57.38 | 284780 | 298092 21 | 66:14.43 | 3:29.65 | 298093 | 313832 22 | 69:44.33 | 3:28.70 | 313833 | 329502
Характеристики диапазона извлечения и сообщения об ошибках
Выбранный диапазон
Имя файла E:\MusicCD\Torrent\Natalie Cole\Natalie Cole - Unforgettable With Love\Natalie Cole - Unforgettable With Love.wav
Пиковый уровень 97.2 % Скорость извлечения 9.0 X Качество диапазона 99.9 % CRC теста 74A8CD74 CRC копии 74A8CD74 Копирование... OK
Ошибок не произошло
AccurateRip: сводка
Трек 1 : извлечено точно (доверие 13) [03BEA3FB] (AR v1)Трек 2 : извлечено точно (доверие 13) [77CAB1BC] (AR v1)Трек 3 : извлечено точно (доверие 13) [4AF1010D] (AR v1)Трек 4 : извлечено точно (доверие 13) [019D2314] (AR v1)Трек 5 : извлечено точно (доверие 13) [841B5ADC] (AR v1)Трек 6 : извлечено точно (доверие 13) [A415B7FF] (AR v1)Трек 7 : извлечено точно (доверие 13) [E918D896] (AR v1)Трек 8 : извлечено точно (доверие 13) [C95C2A66] (AR v1)Трек 9 : извлечено точно (доверие 13) [8B522492] (AR v1)Трек 10 : извлечено точно (доверие 13) [7DF77AD4] (AR v1)Трек 11 : извлечено точно (доверие 13) [0EFD46FB] (AR v1)Трек 12 : извлечено точно (доверие 13) [464E94FA] (AR v1)Трек 13 : извлечено точно (доверие 13) [F4134B0E] (AR v1)Трек 14 : извлечено точно (доверие 13) [EDBBF66A] (AR v1)Трек 15 : извлечено точно (доверие 13) [9EF9167A] (AR v1)Трек 16 : извлечено точно (доверие 13) [0EF3D7CC] (AR v1)Трек 17 : извлечено точно (доверие 13) [93CFA11E] (AR v1)Трек 18 : извлечено точно (доверие 13) [D1CF0974] (AR v1)Трек 19 : извлечено точно (доверие 13) [25B31875] (AR v1)Трек 20 : извлечено точно (доверие 13) [FFC2070A] (AR v1)Трек 21 : извлечено точно (доверие 12) [AE721D27] (AR v1)Трек 22 : извлечено точно (доверие 12) [6BF6ADA6] (AR v1)
Все треки извлечены точно
Конец отчёта
==== Контрольная сумма отчёта C956D5EB92B8DFB60DDE95B142395FE2099C014B1E8C0EB2E64CDDB0B7CA7EF7 ====

Matrix

1993 - Take A Look

Страна-производитель диска: Germany
Издатель (лейбл): Elektra
Номер по каталогу: 7559-61496-2
Продолжительность: 1:04:44.00
Треклист:
01. I wish you love [0:04:08.96]
02. I'm beginning to see the light [0:03:29.93]
03. Swingin' shepherd blues [0:04:01.60]
04. Crazy he calls me [0:04:11.70]
05. Cry me a river [0:03:53.09]
06. Undecided [0:02:16.33]
07. Fiesta in blue [0:04:03.93]
08. I'm gonna laugh you right out of my life [0:03:33.93]
09. Let there be love [0:03:50.66]
10. It's sand man [0:02:31.26]
11. Don't explain [0:03:11.90]
12. As time goes by [0:03:45.16]
13. Too close for comfort [0:02:56.53]
14. Calypso blues [0:05:03.24]
15. This will make you laugh [0:03:46.29]
16. Lovers [0:03:13.93]
17. All about love [0:03:40.60]
18. Take a look [0:03:04.90]

Лог создания рипа

Exact Audio Copy V1.0 beta 3 from 29. August 2011
Отчёт EAC об извлечении, выполненном 7. февраля 2013, 21:43
Natalie Cole / Take A Look
Дисковод: SONY CD-RW CRX230ED Adapter: 0 ID: 1
Режим чтения : ДостоверностьИспользование точного потока : ДаОтключение кэша аудио : ДаИспользование указателей C2 : Нет
Коррекция смещения при чтении : 6Способность читать области Lead-in и Lead-out : НетЗаполнение пропущенных сэмплов тишиной : ДаУдаление блоков с тишиной в начале и конце : НетПри вычислениях CRC использовались нулевые сэмплы : ДаИнтерфейс : Установленный внешний ASPI-интерфейс
Выходной формат : Внутренние WAV-операцииФормат файла сэмплов : 44.100 Гц; 16 бит; стерео
TOC извлечённого CD
Трек | Старт | Длительность | Начальный сектор | Конечный сектор --------------------------------------------------------------------- 1 | 0:00.00 | 4:08.72 | 0 | 18671 2 | 4:08.72 | 3:29.70 | 18672 | 34416 3 | 7:38.67 | 4:01.45 | 34417 | 52536 4 | 11:40.37 | 4:11.53 | 52537 | 71414 5 | 15:52.15 | 3:53.07 | 71415 | 88896 6 | 19:45.22 | 2:16.25 | 88897 | 99121 7 | 22:01.47 | 4:03.70 | 99122 | 117416 8 | 26:05.42 | 3:33.70 | 117417 | 133461 9 | 29:39.37 | 3:50.50 | 133462 | 150761 10 | 33:30.12 | 2:31.20 | 150762 | 162106 11 | 36:01.32 | 3:11.68 | 162107 | 176499 12 | 39:13.25 | 3:45.12 | 176500 | 193386 13 | 42:58.37 | 2:56.40 | 193387 | 206626 14 | 45:55.02 | 5:03.18 | 206627 | 229369 15 | 50:58.20 | 3:46.22 | 229370 | 246341 16 | 54:44.42 | 3:13.70 | 246342 | 260886 17 | 57:58.37 | 3:40.45 | 260887 | 277431 18 | 61:39.07 | 3:04.68 | 277432 | 291299
Характеристики диапазона извлечения и сообщения об ошибках
Выбранный диапазон
Имя файла E:\MusicCD\Torrent\Natalie Cole\Natalie Cole - Take A Look\Natalie Cole - Take A Look.wav
Пиковый уровень 97.2 % Скорость извлечения 8.7 X Качество диапазона 99.9 % CRC теста B075B1AA CRC копии B075B1AA Копирование... OK
Ошибок не произошло
AccurateRip: сводка
Трек 1 : извлечено точно (доверие 10) [1BD43AB1] (AR v2)Трек 2 : извлечено точно (доверие 10) [2B5680BA] (AR v2)Трек 3 : извлечено точно (доверие 10) [11114AA8] (AR v2)Трек 4 : извлечено точно (доверие 10) [6A297ECE] (AR v2)Трек 5 : извлечено точно (доверие 10) [F03A2BC7] (AR v2)Трек 6 : извлечено точно (доверие 10) [21E8B77A] (AR v2)Трек 7 : извлечено точно (доверие 10) [5BD47691] (AR v2)Трек 8 : извлечено точно (доверие 10) [46D83D68] (AR v2)Трек 9 : извлечено точно (доверие 10) [815547ED] (AR v2)Трек 10 : извлечено точно (доверие 10) [78FF536E] (AR v2)Трек 11 : извлечено точно (доверие 10) [78001F87] (AR v2)Трек 12 : извлечено точно (доверие 10) [6A2EEFBF] (AR v2)Трек 13 : извлечено точно (доверие 10) [13B2C80C] (AR v2)Трек 14 : извлечено точно (доверие 10) [D6989B87] (AR v2)Трек 15 : извлечено точно (доверие 10) [A1E8422F] (AR v2)Трек 16 : извлечено точно (доверие 10) [1B4CDF51] (AR v2)Трек 17 : извлечено точно (доверие 10) [44B9BC68] (AR v2)Трек 18 : извлечено точно (доверие 10) [744EF51E] (AR v2)
Все треки извлечены точно
Конец отчёта
==== Контрольная сумма отчёта C8C45C47043A69FFDB6C6A4D08575CBF44FB391853E31C167E9997844BCF1526 ====

Matrix

1994 - Holly & Ivy

Страна-производитель диска: USA
Издатель (лейбл): Elektra
Номер по каталогу: 61704-2
Продолжительность: 46:58.77
Треклист:
01. Jingle Bells [0:03:34.44]
02. Caroling, Caroling [0:03:08.76]
03. The First Noel [0:04:23.44]
04. No More Blue Christmas [0:04:21.13]
05. Christmas Medley:
a. Jingle Bell Rock
b. Winter Wonderland
c. Little Drummer Boy
d. I'll Be Home For Christmas [0:06:08.46]
06. Merry Christmas Baby [0:03:23.80]
07. Joy To The World [0:02:49.60]
08. The Little Boy That Santa Claus Forgot [0:03:05.36]
09. A Song For Christmas [0:03:24.60]
10. Silent Night [0:05:02.44]
11. The Christmas Song (Chestnuts Roasting On An Open Fire) [0:03:39.26]
12. The Holly & The Ivy [0:03:57.46]

Лог создания рипа

Exact Audio Copy V1.0 beta 3 from 29. August 2011
Отчёт EAC об извлечении, выполненном 7. февраля 2013, 22:23
Natalie Cole / Holly & Ivy
Дисковод: SONY CD-RW CRX230ED Adapter: 0 ID: 1
Режим чтения : ДостоверностьИспользование точного потока : ДаОтключение кэша аудио : ДаИспользование указателей C2 : Нет
Коррекция смещения при чтении : 6Способность читать области Lead-in и Lead-out : НетЗаполнение пропущенных сэмплов тишиной : ДаУдаление блоков с тишиной в начале и конце : НетПри вычислениях CRC использовались нулевые сэмплы : ДаИнтерфейс : Установленный внешний ASPI-интерфейс
Выходной формат : Внутренние WAV-операцииФормат файла сэмплов : 44.100 Гц; 16 бит; стерео
TOC извлечённого CD
Трек | Старт | Длительность | Начальный сектор | Конечный сектор --------------------------------------------------------------------- 1 | 0:00.32 | 3:34.33 | 32 | 16114 2 | 3:34.65 | 3:08.57 | 16115 | 30271 3 | 6:43.47 | 4:23.33 | 30272 | 50029 4 | 11:07.05 | 4:21.10 | 50030 | 69614 5 | 15:28.15 | 6:08.35 | 69615 | 97249 6 | 21:36.50 | 3:23.60 | 97250 | 112534 7 | 25:00.35 | 2:49.45 | 112535 | 125254 8 | 27:50.05 | 3:05.27 | 125255 | 139156 9 | 30:55.32 | 3:24.45 | 139157 | 154501 10 | 34:20.02 | 5:02.33 | 154502 | 177184 11 | 39:22.35 | 3:39.20 | 177185 | 193629 12 | 43:01.55 | 3:57.35 | 193630 | 211439
Характеристики диапазона извлечения и сообщения об ошибках
Выбранный диапазон
Имя файла E:\MusicCD\Torrent\Natalie Cole\Natalie Cole - Holly & Ivy\Natalie Cole - Holly & Ivy.wav
Пиковый уровень 100.0 % Скорость извлечения 5.8 X Качество диапазона 100.0 % CRC теста 2FC180B8 CRC копии 2FC180B8 Копирование... OK
Ошибок не произошло
AccurateRip: сводка
Трек 1 точность не определена (достоверность 42) [21EFF669], AccurateRip вернул [BFC3A154] (AR v2)Трек 2 точность не определена (достоверность 42) [90B01457], AccurateRip вернул [8CFBF4BB] (AR v2)Трек 3 точность не определена (достоверность 42) [745A292C], AccurateRip вернул [B6BCF765] (AR v2)Трек 4 точность не определена (достоверность 42) [5BBA7C22], AccurateRip вернул [285960D5] (AR v2)Трек 5 точность не определена (достоверность 42) [76D1B294], AccurateRip вернул [017288B1] (AR v2)Трек 6 точность не определена (достоверность 42) [867A1862], AccurateRip вернул [0634D709] (AR v2)Трек 7 точность не определена (достоверность 42) [B1CBE364], AccurateRip вернул [F74A7CE0] (AR v2)Трек 8 точность не определена (достоверность 42) [82D3AEFE], AccurateRip вернул [B60C73C1] (AR v2)Трек 9 точность не определена (достоверность 41) [2AC1DDD5], AccurateRip вернул [BE4A48FB] (AR v2)Трек 10 точность не определена (достоверность 41) [ECC175B8], AccurateRip вернул [6071EBAE] (AR v2)Трек 11 точность не определена (достоверность 41) [30D07D15], AccurateRip вернул [AACD7177] (AR v2)Трек 12 точность не определена (достоверность 42) [9D6F26ED], AccurateRip вернул [58DC2123] (AR v2)
Ни один трек не прошёл проверки на точностьВ вашей базе может быть иной вариант штамповки диска
Конец отчёта
==== Контрольная сумма отчёта B3EBDD87731F864BD54AE22DDDB8E6B7722D1028A0FF367BB3504F462F6DA3C1 ====

Matrix

1996 - Stardust

Страна-производитель диска: USA
Издатель (лейбл): Elektra
Номер по каталогу: 61946-2
Продолжительность: 1:18:49.37
Треклист:
01. There's A Lull In My Life [0:05:24.13]
02. Stardust [0:04:40.64]
03. Let's Face The Music And Dance [0:02:17.66]
04. Teach Me Tonight [0:03:17.76]
05. When I Fall In Love (Duet with Nat King Cole) [0:04:11.93]
06. What A Difference A Day Made [0:03:16.77]
07. Love Letters [0:04:49.76]
08. He Was Too Good To Me [0:05:09.10]
09. Dindi (Portuguese) [0:04:36.40]
10. Two For The Blues [0:04:22.62]
11. If Love Ain't There [0:03:26.10]
12. To Whom It May Concern [0:03:28.56]
13. Where Can I Go Without You [0:04:23.66]
14. Ahmad's Blues [0:04:14.73]
15. Pick Yourself Up [0:03:31.10]
16. If You Could See Me Now [0:04:43.46]
17. Like A Lover [0:05:18.40]
18. This Morning It Was Summer [0:03:25.69]
19. When I Fall In Love (Spanish) [0:04:10.84]

Лог создания рипа

Exact Audio Copy V1.0 beta 3 from 29. August 2011
Отчёт EAC об извлечении, выполненном 10. февраля 2013, 10:28
Natalie Cole / Stardust
Дисковод: SONY CD-RW CRX230ED Adapter: 0 ID: 1
Режим чтения : ДостоверностьИспользование точного потока : ДаОтключение кэша аудио : ДаИспользование указателей C2 : Нет
Коррекция смещения при чтении : 6Способность читать области Lead-in и Lead-out : НетЗаполнение пропущенных сэмплов тишиной : ДаУдаление блоков с тишиной в начале и конце : НетПри вычислениях CRC использовались нулевые сэмплы : ДаИнтерфейс : Установленный внешний ASPI-интерфейс
Выходной формат : Внутренние WAV-операцииФормат файла сэмплов : 44.100 Гц; 16 бит; стерео
TOC извлечённого CD
Трек | Старт | Длительность | Начальный сектор | Конечный сектор --------------------------------------------------------------------- 1 | 0:00.32 | 5:24.10 | 32 | 24341 2 | 5:24.42 | 4:40.48 | 24342 | 45389 3 | 10:05.15 | 2:17.50 | 45390 | 55714 4 | 12:22.65 | 3:17.57 | 55715 | 70546 5 | 15:40.47 | 4:11.70 | 70547 | 89441 6 | 19:52.42 | 3:16.58 | 89442 | 104199 7 | 23:09.25 | 4:49.57 | 104200 | 125931 8 | 27:59.07 | 5:09.08 | 125932 | 149114 9 | 33:08.15 | 4:36.30 | 149115 | 169844 10 | 37:44.45 | 4:22.47 | 169845 | 189541 11 | 42:07.17 | 3:26.08 | 189542 | 204999 12 | 45:33.25 | 3:28.42 | 205000 | 220641 13 | 49:01.67 | 4:23.50 | 220642 | 240416 14 | 53:25.42 | 4:14.55 | 240417 | 259521 15 | 57:40.22 | 3:31.08 | 259522 | 275354 16 | 61:11.30 | 4:43.35 | 275355 | 296614 17 | 65:54.65 | 5:18.30 | 296615 | 320494 18 | 71:13.20 | 3:25.52 | 320495 | 335921 19 | 74:38.72 | 4:10.63 | 335922 | 354734
Характеристики диапазона извлечения и сообщения об ошибках
Выбранный диапазон
Имя файла E:\MusicCD\Torrent\Natalie Cole\Natalie Cole - Stardust\Natalie Cole - Stardust.wav
Пиковый уровень 100.0 % Скорость извлечения 9.2 X Качество диапазона 100.0 % CRC теста 895761BD CRC копии 895761BD Копирование... OK
Ошибок не произошло
AccurateRip: сводка
Трек 1 точность не определена (достоверность 50) [6A982D4A], AccurateRip вернул [E70B3B16] (AR v2)Трек 2 точность не определена (достоверность 50) [1DBC344C], AccurateRip вернул [B0AA24AA] (AR v2)Трек 3 точность не определена (достоверность 51) [EE94625C], AccurateRip вернул [CA38BD85] (AR v2)Трек 4 точность не определена (достоверность 50) [8D557C27], AccurateRip вернул [0387E75C] (AR v2)Трек 5 точность не определена (достоверность 49) [2EF9D60B], AccurateRip вернул [EE2F7022] (AR v2)Трек 6 точность не определена (достоверность 50) [0403A47F], AccurateRip вернул [DE1185B3] (AR v2)Трек 7 точность не определена (достоверность 51) [9971160D], AccurateRip вернул [24AF2CEC] (AR v2)Трек 8 точность не определена (достоверность 51) [04D4323A], AccurateRip вернул [5EF9A4DF] (AR v2)Трек 9 точность не определена (достоверность 51) [7A2639B4], AccurateRip вернул [9527DBA5] (AR v2)Трек 10 точность не определена (достоверность 51) [DC92E8CE], AccurateRip вернул [8D44F326] (AR v2)Трек 11 точность не определена (достоверность 51) [706EAB36], AccurateRip вернул [7365A10B] (AR v2)Трек 12 точность не определена (достоверность 51) [64D8818B], AccurateRip вернул [2EB8BE5C] (AR v2)Трек 13 точность не определена (достоверность 51) [EC7821E6], AccurateRip вернул [45B2DE28] (AR v2)Трек 14 точность не определена (достоверность 49) [E7B692E7], AccurateRip вернул [E5E85D02] (AR v2)Трек 15 точность не определена (достоверность 51) [14C808A8], AccurateRip вернул [BA91D837] (AR v2)Трек 16 точность не определена (достоверность 51) [CCF2836C], AccurateRip вернул [E73C828C] (AR v2)Трек 17 точность не определена (достоверность 51) [9456EF7A], AccurateRip вернул [1BB27D5A] (AR v2)Трек 18 точность не определена (достоверность 51) [26EE733D], AccurateRip вернул [F6412683] (AR v2)Трек 19 точность не определена (достоверность 44) [AE4F6F2B], AccurateRip вернул [FB3E3960] (AR v2)
Ни один трек не прошёл проверки на точностьВ вашей базе может быть иной вариант штамповки диска
Конец отчёта
==== Контрольная сумма отчёта 5E9ADD2231E29BB0990A7286988B7F7CF1BC0CE5D3D4D1E17B54469E500E4C47 ====

Matrix

1999 - Snowfall On The Sahara

Страна-производитель диска: Germany
Издатель (лейбл): Elektra
Номер по каталогу: 7559-62401-2
Продолжительность: 56:35.82
Треклист:
01. A Song For You [0:04:17.60]
02. Reverend Lee [0:05:09.06]
03. Snowfall On The Sahara [0:04:20.76]
04. More Than You`ll Ever Know [0:04:40.53]
05. Corinna [0:05:14.04]
06. Say You Love Me [0:04:53.66]
07. Everyday I Have The Blues [0:04:07.56]
08. With My Eyes Wide Open I`m Dreaming [0:04:29.90]
09. His Eyes, Her Eyes [0:05:57.49]
10. Since You Asked [0:03:59.00]
11. Gotta Serve Somebody [0:05:17.64]
12. Stay With Me [0:04:08.56]

Лог создания рипа

Exact Audio Copy V1.0 beta 3 from 29. August 2011
Отчёт EAC об извлечении, выполненном 10. февраля 2013, 11:04
Natalie Cole / Snowfall On The Sahara
Дисковод: SONY CD-RW CRX230ED Adapter: 0 ID: 1
Режим чтения : ДостоверностьИспользование точного потока : ДаОтключение кэша аудио : ДаИспользование указателей C2 : Нет
Коррекция смещения при чтении : 6Способность читать области Lead-in и Lead-out : НетЗаполнение пропущенных сэмплов тишиной : ДаУдаление блоков с тишиной в начале и конце : НетПри вычислениях CRC использовались нулевые сэмплы : ДаИнтерфейс : Установленный внешний ASPI-интерфейс
Выходной формат : Внутренние WAV-операцииФормат файла сэмплов : 44.100 Гц; 16 бит; стерео
TOC извлечённого CD
Трек | Старт | Длительность | Начальный сектор | Конечный сектор --------------------------------------------------------------------- 1 | 0:00.00 | 4:17.45 | 0 | 19319 2 | 4:17.45 | 5:09.05 | 19320 | 42499 3 | 9:26.50 | 4:20.57 | 42500 | 62056 4 | 13:47.32 | 4:40.40 | 62057 | 83096 5 | 18:27.72 | 5:14.03 | 83097 | 106649 6 | 23:42.00 | 4:53.50 | 106650 | 128674 7 | 28:35.50 | 4:07.42 | 128675 | 147241 8 | 32:43.17 | 4:29.68 | 147242 | 167484 9 | 37:13.10 | 5:57.37 | 167485 | 194296 10 | 43:10.47 | 3:59.00 | 194297 | 212221 11 | 47:09.47 | 5:17.48 | 212222 | 236044 12 | 52:27.20 | 4:08.42 | 236045 | 254686
Характеристики диапазона извлечения и сообщения об ошибках
Выбранный диапазон
Имя файла E:\MusicCD\Torrent\Natalie Cole\Natalie Cole - Snowfall On The Sahara\Natalie Cole - Snowfall On The Sahara.wav
Пиковый уровень 99.8 % Скорость извлечения 7.9 X Качество диапазона 100.0 % CRC теста 140BB961 CRC копии 140BB961 Копирование... OK
Ошибок не произошло
AccurateRip: сводка
Трек 1 : извлечено точно (доверие 3) [80701D47] (AR v1)Трек 2 : извлечено точно (доверие 3) [8A81D9D8] (AR v1)Трек 3 : извлечено точно (доверие 3) [3E82F345] (AR v1)Трек 4 : извлечено точно (доверие 3) [A56C86D0] (AR v1)Трек 5 : извлечено точно (доверие 3) [1867F515] (AR v1)Трек 6 : извлечено точно (доверие 3) [D6FF52E3] (AR v1)Трек 7 : извлечено точно (доверие 3) [91B41901] (AR v1)Трек 8 : извлечено точно (доверие 3) [18C81685] (AR v1)Трек 9 : извлечено точно (доверие 3) [8F9F83CA] (AR v1)Трек 10 : извлечено точно (доверие 3) [A89A9D53] (AR v1)Трек 11 : извлечено точно (доверие 3) [3E8A6860] (AR v1)Трек 12 : извлечено точно (доверие 3) [347E4B84] (AR v1)
Все треки извлечены точно
Конец отчёта
==== Контрольная сумма отчёта C8B87F8E3A3A848CAE07E7A72A40682EF2BF9267956F7E737AA0459A3F497316 ====

Matrix

1999 - The Magic Of Christmas

Страна-производитель диска: Australia
Издатель (лейбл): Elektra
Номер по каталогу: 7559624332
Продолжительность: 41:16
Треклист:
01. The Christmas Song [3:45]
02. Hark The Herald Angels Sing [3:43]
03. O Tanenbaum [3:58]
04. Sweet Little Jesus Boy [3:43]
05. Sleigh Ride [3:31]
06. My Grown-Up Christmas List [4:11]
07. Christmas Waltz [4:23]
08. Mary, Did You Know [3:27]
09. Carol Of The Bells [4:33]
10. Twelve Days Of Christmas [6:05]

Лог создания рипа

X Lossless Decoder version 20181019 (151.1)
XLD extraction logfile from 2018-11-29 20:37:59 +0500
Natalie Cole / The Magic Of Christmas
Used drive : HL-DT-ST DVDRAM GP60NS60 (revision PE00)Media type : Pressed CD
Ripper mode : XLD Secure RipperDisable audio cache : OK for the drive with a cache less than 1375KiBMake use of C2 pointers : NORead offset correction : 6Max retry count : 20Gap status : Analyzed, Appended
TOC of the extracted CD Track | Start | Length | Start sector | End sector --------------------------------------------------------- 1 | 00:00:00 | 03:44:53 | 0 | 16852 2 | 03:44:53 | 03:42:52 | 16853 | 33554 3 | 07:27:30 | 03:57:40 | 33555 | 51369 4 | 11:24:70 | 03:43:03 | 51370 | 68097 5 | 15:07:73 | 03:31:14 | 68098 | 83936 6 | 18:39:12 | 04:10:42 | 83937 | 102728 7 | 22:49:54 | 04:22:69 | 102729 | 122447 8 | 27:12:48 | 03:26:50 | 122448 | 137947 9 | 30:39:23 | 04:32:72 | 137948 | 158419 10 | 35:12:20 | 06:04:52 | 158420 | 185771
AccurateRip Summary Disc not found in AccurateRip DB.
All Tracks Filename : /Users/mihail/Music/CDs/Natalie Cole - The Magic Of Christmas.flac Album gain : -5.51 dB Peak : 0.999969 CRC32 hash (test run) : E5258AAA CRC32 hash : E5258AAA CRC32 hash (skip zero) : EB0C4D0E Statistics Read error : 0 Jitter error (maybe fixed) : 0 Retry sector count : 0 Damaged sector count : 0
Track 01 Pre-gap length : 00:02:00
Track gain : -4.05 dB Peak : 0.999969 CRC32 hash (test run) : 2D51B36E CRC32 hash : 2D51B36E CRC32 hash (skip zero) : 1B26CEBF AccurateRip v1 signature : D381B7F6 AccurateRip v2 signature : DE53DA9C ->Track not present in AccurateRip database. Statistics Read error : 0 Jitter error (maybe fixed) : 0 Retry sector count : 0 Damaged sector count : 0
Track 02
Track gain : -6.95 dB Peak : 0.999969 CRC32 hash (test run) : 01239ED8 CRC32 hash : 01239ED8 CRC32 hash (skip zero) : 159A3EB7 AccurateRip v1 signature : 92DA9468 AccurateRip v2 signature : 661D7754 ->Track not present in AccurateRip database. Statistics Read error : 0 Jitter error (maybe fixed) : 0 Retry sector count : 0 Damaged sector count : 0
Track 03
Track gain : -3.25 dB Peak : 0.999969 CRC32 hash (test run) : 2F994746 CRC32 hash : 2F994746 CRC32 hash (skip zero) : 9C6D20AC AccurateRip v1 signature : C68FD291 AccurateRip v2 signature : 8F9F0AB3 ->Track not present in AccurateRip database. Statistics Read error : 0 Jitter error (maybe fixed) : 0 Retry sector count : 0 Damaged sector count : 0
Track 04
Track gain : -1.82 dB Peak : 0.999969 CRC32 hash (test run) : AD01D058 CRC32 hash : AD01D058 CRC32 hash (skip zero) : E6504F27 AccurateRip v1 signature : 950A16BF AccurateRip v2 signature : 7545285E ->Track not present in AccurateRip database. Statistics Read error : 0 Jitter error (maybe fixed) : 0 Retry sector count : 0 Damaged sector count : 0
Track 05
Track gain : -7.95 dB Peak : 0.999969 CRC32 hash (test run) : B3478CF4 CRC32 hash : B3478CF4 CRC32 hash (skip zero) : BCCFEC0A AccurateRip v1 signature : 0EDC3140 AccurateRip v2 signature : A059ABBD ->Track not present in AccurateRip database. Statistics Read error : 0 Jitter error (maybe fixed) : 0 Retry sector count : 0 Damaged sector count : 0
Track 06
Track gain : -5.38 dB Peak : 0.999969 CRC32 hash (test run) : A887ED09 CRC32 hash : A887ED09 CRC32 hash (skip zero) : 56060A7E AccurateRip v1 signature : 728774C0 AccurateRip v2 signature : D0F44D62 ->Track not present in AccurateRip database. Statistics Read error : 0 Jitter error (maybe fixed) : 0 Retry sector count : 0 Damaged sector count : 0
Track 07
Track gain : -3.51 dB Peak : 0.999969 CRC32 hash (test run) : 6BC2176A CRC32 hash : 6BC2176A CRC32 hash (skip zero) : 10BF2D42 AccurateRip v1 signature : 61084E09 AccurateRip v2 signature : 4B8AB4FB ->Track not present in AccurateRip database. Statistics Read error : 0 Jitter error (maybe fixed) : 0 Retry sector count : 0 Damaged sector count : 0
Track 08
Track gain : -5.73 dB Peak : 0.999969 CRC32 hash (test run) : 4996534D CRC32 hash : 4996534D CRC32 hash (skip zero) : 108C094A AccurateRip v1 signature : AEF07140 AccurateRip v2 signature : 6852FD62 ->Track not present in AccurateRip database. Statistics Read error : 0 Jitter error (maybe fixed) : 0 Retry sector count : 0 Damaged sector count : 0
Track 09
Track gain : -5.28 dB Peak : 0.999969 CRC32 hash (test run) : AD6AFF10 CRC32 hash : AD6AFF10 CRC32 hash (skip zero) : BC08BC09 AccurateRip v1 signature : 4EC6AA06 AccurateRip v2 signature : 5CB5ACF4 ->Track not present in AccurateRip database. Statistics Read error : 0 Jitter error (maybe fixed) : 0 Retry sector count : 0 Damaged sector count : 0
Track 10
Track gain : -6.47 dB Peak : 0.999969 CRC32 hash (test run) : 62D8E60B CRC32 hash : 62D8E60B CRC32 hash (skip zero) : E560CFB6 AccurateRip v1 signature : A76AFBD3 AccurateRip v2 signature : 5334EE24 ->Track not present in AccurateRip database. Statistics Read error : 0 Jitter error (maybe fixed) : 0 Retry sector count : 0 Damaged sector count : 0
No errors occurred
End of status report
-----BEGIN XLD SIGNATURE-----UzTdx6lw2mg6q.txJsPT4LquuGushF_BZ8DdfFeVyVYeR5Jm8XiTrzKjAwg3FzTmJJ3x_lBT4NQ4zRVemDvi7g7xjrmmkkeepsNu_iS-----END XLD SIGNATURE-----

Matrix

2002 - Ask A Woman Who Knows

Страна-производитель диска: Germany
Издатель (лейбл): Verve
Номер по каталогу: 589 774-2
Продолжительность: 53:39.49
Треклист:
01. I Haven't Got Anything Better to Do [0:04:07.00]
02. Tell Me All About It [0:04:10.33]
03. Ask a Woman Who Knows [0:04:14.33]
04. It's Crazy [0:02:10.66]
05. You're Mine You [0:04:03.82]
06. So Many Stars [0:05:17.33]
07. I Told You So [0:03:52.66]
08. Soon [0:03:13.84]
09. I'm Glad There Is You [0:05:16.16]
10. Better Than Anything (with Diana Krall) [0:03:35.66]
11. Music That Makes Me Dance [0:04:09.66]
12. Calling You [0:05:00.50]
13. My Baby Just Cares for Me [0:04:27.49]

Лог создания рипа

Exact Audio Copy V1.0 beta 3 from 29. August 2011
Отчёт EAC об извлечении, выполненном 10. февраля 2013, 12:09
Natalie Cole / Ask A Woman Who Knows
Дисковод: SONY CD-RW CRX230ED Adapter: 0 ID: 1
Режим чтения : ДостоверностьИспользование точного потока : ДаОтключение кэша аудио : ДаИспользование указателей C2 : Нет
Коррекция смещения при чтении : 6Способность читать области Lead-in и Lead-out : НетЗаполнение пропущенных сэмплов тишиной : ДаУдаление блоков с тишиной в начале и конце : НетПри вычислениях CRC использовались нулевые сэмплы : ДаИнтерфейс : Установленный внешний ASPI-интерфейс
Выходной формат : Внутренние WAV-операцииФормат файла сэмплов : 44.100 Гц; 16 бит; стерео
TOC извлечённого CD
Трек | Старт | Длительность | Начальный сектор | Конечный сектор --------------------------------------------------------------------- 1 | 0:00.00 | 4:07.00 | 0 | 18524 2 | 4:07.00 | 4:10.25 | 18525 | 37299 3 | 8:17.25 | 4:14.25 | 37300 | 56374 4 | 12:31.50 | 2:10.50 | 56375 | 66174 5 | 14:42.25 | 4:03.62 | 66175 | 84461 6 | 18:46.12 | 5:17.25 | 84462 | 108261 7 | 24:03.37 | 3:52.50 | 108262 | 125711 8 | 27:56.12 | 3:13.63 | 125712 | 140249 9 | 31:10.00 | 5:16.12 | 140250 | 163961 10 | 36:26.12 | 3:35.50 | 163962 | 180136 11 | 40:01.62 | 4:09.50 | 180137 | 198861 12 | 44:11.37 | 5:00.38 | 198862 | 221399 13 | 49:12.00 | 4:27.37 | 221400 | 241461
Характеристики диапазона извлечения и сообщения об ошибках
Выбранный диапазон
Имя файла E:\MusicCD\Torrent\Natalie Cole\Natalie Cole - Ask A Woman Who Knows\Natalie Cole - Ask A Woman Who Knows.wav
Пиковый уровень 100.0 % Скорость извлечения 7.9 X Качество диапазона 100.0 % CRC теста 95F271BF CRC копии 95F271BF Копирование... OK
Ошибок не произошло
AccurateRip: сводка
Трек 1 : извлечено точно (доверие 11) [BD4B1958] (AR v1)Трек 2 : извлечено точно (доверие 12) [FA18784A] (AR v1)Трек 3 : извлечено точно (доверие 11) [CA57862E] (AR v1)Трек 4 : извлечено точно (доверие 11) [991BA84F] (AR v1)Трек 5 : извлечено точно (доверие 12) [A3AF9EF9] (AR v1)Трек 6 : извлечено точно (доверие 12) [A81F5010] (AR v1)Трек 7 : извлечено точно (доверие 11) [5B8590C6] (AR v1)Трек 8 : извлечено точно (доверие 11) [6A100450] (AR v1)Трек 9 : извлечено точно (доверие 11) [D7F9BE95] (AR v1)Трек 10 : извлечено точно (доверие 12) [8E3903CD] (AR v1)Трек 11 : извлечено точно (доверие 11) [26654C2B] (AR v1)Трек 12 : извлечено точно (доверие 11) [F2B5434D] (AR v1)Трек 13 : извлечено точно (доверие 10) [6122D453] (AR v1)
Все треки извлечены точно
Конец отчёта
==== Контрольная сумма отчёта E8325C7928F79FF376475637F01CD9B5F10DD6E8E67732F565A7D16BAE81F491 ====

Matrix

2006 - Leavin'

Страна-производитель диска: Germany
Издатель (лейбл): Verve
Номер по каталогу: 0602498509586
Продолжительность: 52:20.61
Треклист:
01. Criminal [0:04:04.60]
02. Old Man [0:04:35.48]
03. Day Dreaming [0:03:34.86]
04. Leavin' [0:03:48.98]
05. The More You Do It (The More I Like It Done To Me) [0:03:25.73]
06. Lovin' Arms [0:04:41.68]
07. Love Letter [0:03:49.05]
08. The Man With The Child In His Eyes [0:04:53.57]
09. 5 Minutes Away [0:04:21.89]
10. Don't Say Goodnight (It's Time For Love) [0:05:40.62]
11. You Gotta Be [0:03:45.96]
12. If I Ever Lose My Faith In You [0:05:38.16]

Лог создания рипа

Exact Audio Copy V1.0 beta 3 from 29. August 2011
Отчёт EAC об извлечении, выполненном 10. февраля 2013, 12:42
Natalie Cole / Leavin'
Дисковод: SONY CD-RW CRX230ED Adapter: 0 ID: 1
Режим чтения : ДостоверностьИспользование точного потока : ДаОтключение кэша аудио : ДаИспользование указателей C2 : Нет
Коррекция смещения при чтении : 6Способность читать области Lead-in и Lead-out : НетЗаполнение пропущенных сэмплов тишиной : ДаУдаление блоков с тишиной в начале и конце : НетПри вычислениях CRC использовались нулевые сэмплы : ДаИнтерфейс : Установленный внешний ASPI-интерфейс
Выходной формат : Внутренние WAV-операцииФормат файла сэмплов : 44.100 Гц; 16 бит; стерео
TOC извлечённого CD
Трек | Старт | Длительность | Начальный сектор | Конечный сектор --------------------------------------------------------------------- 1 | 0:00.00 | 4:04.45 | 0 | 18344 2 | 4:04.45 | 4:35.36 | 18345 | 39005 3 | 8:40.06 | 3:34.65 | 39006 | 55120 4 | 12:14.71 | 3:48.74 | 55121 | 72294 5 | 16:03.70 | 3:25.55 | 72295 | 87724 6 | 19:29.50 | 4:41.51 | 87725 | 108850 7 | 24:11.26 | 3:49.04 | 108851 | 126029 8 | 28:00.30 | 4:53.43 | 126030 | 148047 9 | 32:53.73 | 4:21.67 | 148048 | 167689 10 | 37:15.65 | 5:40.47 | 167690 | 193236 11 | 42:56.37 | 3:45.72 | 193237 | 210183 12 | 46:42.34 | 5:38.12 | 210184 | 235545
Характеристики диапазона извлечения и сообщения об ошибках
Выбранный диапазон
Имя файла E:\MusicCD\Torrent\Natalie Cole\Natalie Cole - Leavin'\Natalie Cole - Leavin'.wav
Пиковый уровень 99.4 % Скорость извлечения 7.7 X Качество диапазона 100.0 % CRC теста 64146C01 CRC копии 64146C01 Копирование... OK
Ошибок не произошло
AccurateRip: сводка
Трек 1 : извлечено точно (доверие 3) [D7969F6D] (AR v2)Трек 2 : извлечено точно (доверие 3) [FF9562E3] (AR v2)Трек 3 : извлечено точно (доверие 3) [35BB6ADB] (AR v2)Трек 4 : извлечено точно (доверие 3) [D72E43F9] (AR v2)Трек 5 : извлечено точно (доверие 3) [F812828F] (AR v2)Трек 6 : извлечено точно (доверие 3) [6D44CCF4] (AR v2)Трек 7 : извлечено точно (доверие 3) [2D5EE894] (AR v2)Трек 8 : извлечено точно (доверие 3) [6C33D9E9] (AR v2)Трек 9 : извлечено точно (доверие 3) [30D73205] (AR v2)Трек 10 : извлечено точно (доверие 3) [995D031F] (AR v2)Трек 11 : извлечено точно (доверие 3) [91CF9C4B] (AR v2)Трек 12 : извлечено точно (доверие 3) [B14E14EE] (AR v2)
Все треки извлечены точно
Конец отчёта
==== Контрольная сумма отчёта 7CEEDF703731F106E7B7E6F713BBE1DAD8450E10079DD35EC0C65609E21437AE ====

Matrix

2008 - Still Unforgettable

Страна-производитель диска: USA
Издатель (лейбл): DMI Records / ATCO
Номер по каталогу: R2 512315
Продолжительность: 55:37.66
Треклист:
01. Walkin' My Baby Back Home (Duet with Nat King Cole) [0:02:59.38]
02. Come Rain Or Come Shine [0:03:08.29]
03. Coffee Time [0:02:28.33]
04. Somewhere Along The Way [0:04:42.28]
05. You Go To My Head [0:05:24.10]
06. Nice 'N' Easy [0:03:31.53]
07. Why Don't You Do Right? [0:04:02.57]
08. Here's That Rainy Day [0:06:03.62]
09. But Beautiful [0:03:51.22]
10. Lollipops And Roses [0:05:52.66]
11. The Best Is Yet To Come [0:04:04.48]
12. Something's Gotta Give [0:02:49.82]
13. Until The Real Thing Comes Along [0:03:09.70]
14. It's All Right With Me [0:03:29.62]

Лог создания рипа

Exact Audio Copy V1.0 beta 3 from 29. August 2011
Отчёт EAC об извлечении, выполненном 10. февраля 2013, 13:11
Natalie Cole / Still Unforgettable
Дисковод: SONY CD-RW CRX230ED Adapter: 0 ID: 1
Режим чтения : ДостоверностьИспользование точного потока : ДаОтключение кэша аудио : ДаИспользование указателей C2 : Нет
Коррекция смещения при чтении : 6Способность читать области Lead-in и Lead-out : НетЗаполнение пропущенных сэмплов тишиной : ДаУдаление блоков с тишиной в начале и конце : НетПри вычислениях CRC использовались нулевые сэмплы : ДаИнтерфейс : Установленный внешний ASPI-интерфейс
Выходной формат : Внутренние WAV-операцииФормат файла сэмплов : 44.100 Гц; 16 бит; стерео
TOC извлечённого CD
Трек | Старт | Длительность | Начальный сектор | Конечный сектор --------------------------------------------------------------------- 1 | 0:00.00 | 2:59.29 | 0 | 13453 2 | 2:59.29 | 3:08.22 | 13454 | 27575 3 | 6:07.51 | 2:28.25 | 27576 | 38700 4 | 8:36.01 | 4:42.21 | 38701 | 59871 5 | 13:18.22 | 5:24.08 | 59872 | 84179 6 | 18:42.30 | 3:31.40 | 84180 | 100044 7 | 22:13.70 | 4:02.43 | 100045 | 118237 8 | 26:16.38 | 6:03.47 | 118238 | 145509 9 | 32:20.10 | 3:51.17 | 145510 | 162851 10 | 36:11.27 | 5:52.50 | 162852 | 189301 11 | 42:04.02 | 4:04.36 | 189302 | 207637 12 | 46:08.38 | 2:49.62 | 207638 | 220374 13 | 48:58.25 | 3:09.53 | 220375 | 234602 14 | 52:08.03 | 3:29.47 | 234603 | 250324
Характеристики диапазона извлечения и сообщения об ошибках
Выбранный диапазон
Имя файла E:\MusicCD\Torrent\Natalie Cole\Natalie Cole - Still Unforgettable\Natalie Cole - Still Unforgettable.wav
Пиковый уровень 99.7 % Скорость извлечения 7.8 X Качество диапазона 100.0 % CRC теста 373E4E75 CRC копии 373E4E75 Копирование... OK
Ошибок не произошло
AccurateRip: сводка
Трек 1 точность не определена (достоверность 40) [08925E6F], AccurateRip вернул [A860661D] (AR v2)Трек 2 точность не определена (достоверность 41) [A0FE7115], AccurateRip вернул [FD5A4ABA] (AR v2)Трек 3 точность не определена (достоверность 40) [C1DFF87D], AccurateRip вернул [7DF0896E] (AR v2)Трек 4 точность не определена (достоверность 39) [5D0F8A41], AccurateRip вернул [BF6BAD3F] (AR v2)Трек 5 точность не определена (достоверность 39) [CF13B916], AccurateRip вернул [05266431] (AR v2)Трек 6 точность не определена (достоверность 39) [CAB57E4D], AccurateRip вернул [1CE628BB] (AR v2)Трек 7 точность не определена (достоверность 39) [304AE56B], AccurateRip вернул [B9C8F0C2] (AR v2)Трек 8 точность не определена (достоверность 38) [B97FB4DE], AccurateRip вернул [27547A27] (AR v2)Трек 9 точность не определена (достоверность 39) [D15DF79B], AccurateRip вернул [5924E853] (AR v2)Трек 10 точность не определена (достоверность 40) [C86F69A1], AccurateRip вернул [0E1B7352] (AR v2)Трек 11 точность не определена (достоверность 40) [6586BB8B], AccurateRip вернул [6D26335A] (AR v2)Трек 12 точность не определена (достоверность 40) [6420302F], AccurateRip вернул [095406F6] (AR v2)Трек 13 точность не определена (достоверность 40) [FE997C73], AccurateRip вернул [0DD2A6F8] (AR v2)Трек 14 точность не определена (достоверность 40) [1746386F], AccurateRip вернул [DC28173E] (AR v2)
Ни один трек не прошёл проверки на точностьВ вашей базе может быть иной вариант штамповки диска
Конец отчёта
==== Контрольная сумма отчёта 81A355D0B07FD6D88675C0332E9F8A8EB86CA82F36CAE21F42B165AC489D651A ====

Matrix

2013 - En Espanol

Страна-производитель диска: EU
Издатель (лейбл): Verve
Номер по каталогу: 0602537323951
Продолжительность: 44:00.84
Треклист:
01. Frenesi [0:03:26.32]
02. Voy A Apagar La Luz / Contigo Aprendi [0:04:09.16]
03. Acercate Mas (Duet with Nat 'King' Cole) [0:02:48.54]
04. Manana De Carnaval [0:03:10.26]
05. Besame Mucho (Duet with Andrea Bocelli) [0:04:04.13]
06. Quizas, Quizas, Quizas [0:02:29.69]
07. Solamente Una Vez [0:02:31.77]
08. Oye Como Va (Medley) (feat. Arthur Hanlon) [0:05:00.72]
09. Yo Lo Amo (And I Love Him) (feat. Chris Botti) [0:04:26.94]
10. El Dia Que Me Quieras [0:04:29.18]
11. Bachata Rosa (Duet with Juan Luis Guerra) [0:04:03.68]
12. Amapola [0:03:20.41]

Лог создания рипа

Exact Audio Copy V1.1 from 23. June 2015
Отчёт EAC об извлечении, выполненном 7. мая 2017, 11:06
Natalie Cole / En Espanol
Дисковод: TEAC CD-W552GB Adapter: 1 ID: 0
Режим чтения : ДостоверностьИспользование точного потока : ДаОтключение кэша аудио : ДаИспользование указателей C2 : Нет
Коррекция смещения при чтении : 6Способность читать области Lead-in и Lead-out : НетЗаполнение пропущенных сэмплов тишиной : ДаУдаление блоков с тишиной в начале и конце : НетПри вычислениях CRC использовались нулевые сэмплы : ДаИнтерфейс : Встроенный Win32-интерфейс для Win NT/2000
Выходной формат : Пользовательский кодировщикВыбранный битрейт : 1024 kBit/sКачество : ВысокийДобавление ID3-тега : НетУтилита сжатия : C:\Program Files (x86)\Exact Audio Copy\Flac\flac.exeДополнительные параметры : -V -8 -T "Date=%year%" -T "Genre=%genre%" %source%
TOC извлечённого CD
Трек | Старт | Длительность | Начальный сектор | Конечный сектор --------------------------------------------------------------------- 1 | 0:00.00 | 3:26.24 | 0 | 15473 2 | 3:26.24 | 4:09.12 | 15474 | 34160 3 | 7:35.36 | 2:48.41 | 34161 | 46801 4 | 10:24.02 | 3:10.20 | 46802 | 61071 5 | 13:34.22 | 4:04.10 | 61072 | 79381 6 | 17:38.32 | 2:29.52 | 79382 | 90608 7 | 20:08.09 | 2:31.58 | 90609 | 101991 8 | 22:39.67 | 5:00.54 | 101992 | 124545 9 | 27:40.46 | 4:26.71 | 124546 | 144566 10 | 32:07.42 | 4:29.14 | 144567 | 164755 11 | 36:36.56 | 4:03.51 | 164756 | 183031 12 | 40:40.32 | 3:20.31 | 183032 | 198062
Характеристики диапазона извлечения и сообщения об ошибках
Выбранный диапазон
Имя файла D:\MuCD\Natalie Cole - En Espanol\Natalie Cole - En Espanol.wav
Пиковый уровень 100.0 % Скорость извлечения 8.5 X Качество диапазона 100.0 % CRC теста B24331F6 CRC копии B24331F6 Копирование... OK
Ошибок не произошло
AccurateRip: сводка
Трек 1 : извлечено точно (доверие 27) [AC327A54] (AR v2)Трек 2 : извлечено точно (доверие 27) [11B5129F] (AR v2)Трек 3 : извлечено точно (доверие 27) [D7D8B95E] (AR v2)Трек 4 : извлечено точно (доверие 27) [2AF12B35] (AR v2)Трек 5 : извлечено точно (доверие 27) [4EB6D82B] (AR v2)Трек 6 : извлечено точно (доверие 27) [40D5FCC4] (AR v2)Трек 7 : извлечено точно (доверие 27) [53B47D29] (AR v2)Трек 8 : извлечено точно (доверие 27) [30428831] (AR v2)Трек 9 : извлечено точно (доверие 27) [72512A39] (AR v2)Трек 10 : извлечено точно (доверие 27) [6B3CE107] (AR v2)Трек 11 : извлечено точно (доверие 27) [E818F215] (AR v2)Трек 12 : извлечено точно (доверие 27) [2B23D457] (AR v2)
Все треки извлечены точно
Конец отчёта
==== Контрольная сумма отчёта 970C110C7E46C58E312AFF53C338D802416BBB63BBFC762CE99F4F28965D7B7F ====

Matrix


WikipediaОфициальный сайтAllmusic
Торрент перезалит 01.12.2018


[islamvillage.com]_t_4337307.torrent
Торрент: Зарегистрирован ·  [ 2019-01-06 19:01 ] ·  839f84bbbdbb3b3abef81dd46b63c5951afa2886

70 KB

Статус: проверено
Скачан: 0 раз
Размер: 5.51 GB
Оценка: 
(Голосов: 0)
Сказали спасибо: 0  Спасибо
Похожие темы
[Профиль]    [ЛС]
Показать сообщения:    
Ответить на тему

Текущее время: Сегодня 10:09

Часовой пояс: GMT + 7



Вы не можете начинать темы
Вы не можете отвечать на сообщения
Вы не можете редактировать свои сообщения
Вы не можете удалять свои сообщения
Вы не можете голосовать в опросах
Вы не можете прикреплять файлы к сообщениям
Вы можете скачивать файлы


Wholesale Program | Top 100 Games | 2 ADESIVI/STICKERS in Resina 3D SCRITTA BURGMAN per Scooter SUZUKI 250-400-650