(JRock) [CD] DADAROMA - This is “LIVE” (Type B) - 2018, FLAC (tracks+.cue), lossless

Ответить на тему
Статистика раздачи [Обновить пиров]
Размер:  176 MB   |    Зарегистрирован:  10 дней   |    Скачан:  0 раз

Полного источника не было: Никогда

 
   
 
 
 
Автор Сообщение

islamvillage.com

Создавать темы 06-Янв-2019 19:51

[Цитировать]

DADAROMA / This is “LIVE” (Type B)
Жанр: JRock
Носитель: CD
Страна-производитель диска (релиза): Japan
Год издания: 2018
Издатель (лейбл): Timely Records
Номер по каталогу: TRCL - 0167
Страна исполнителя (группы): Japan
Аудиокодек: FLAC (*.flac)
Тип рипа: tracks+.cue
Битрейт аудио: lossless
Продолжительность: 00:22:42
Источник (релизер): собственный диск
Наличие сканов в содержимом раздачи: нет
Треклист:
01. ファントムペイン
02. 白いゼラニウム
03. 「THE KINKY」
04. イノセント・ホリック
05. ある日、世界は美しいと思った。
06. KIDS WAR

Лог создания рипа

Exact Audio Copy V1.3 from 2. September 2016
EAC extraction logfile from 14. December 2018, 23:33
DADAROMA / This is “LIVE”
Used drive : PIONEER BD-RW BDR-209D Adapter: 1 ID: 0
Read mode : SecureUtilize accurate stream : YesDefeat audio cache : YesMake use of C2 pointers : No
Read offset correction : 667Overread into Lead-In and Lead-Out : NoFill up missing offset samples with silence : YesDelete leading and trailing silent blocks : NoNull samples used in CRC calculations : YesUsed interface : Native Win32 interface for Win NT & 2000Gap handling : Appended to previous track
Used output format : User Defined EncoderSelected bitrate : 896 kBit/sQuality : HighAdd ID3 tag : NoCommand line compressor : C:\Program Files (x86)\Exact Audio Copy\Flac\flac.exeAdditional command line options : -V -8 -T "Genre=%genre%" -T "Artist=%artist%" -T "Title=%title%" -T "Album=%albumtitle%" -T "Date=%year%" -T "Tracknumber=%tracknr%" -T "Comment=%comment%" %source%
TOC of the extracted CD
Track | Start | Length | Start sector | End sector --------------------------------------------------------- 1 | 0:00.00 | 3:10.25 | 0 | 14274 2 | 3:10.25 | 3:48.60 | 14275 | 31434 3 | 6:59.10 | 3:26.28 | 31435 | 46912 4 | 10:25.38 | 3:29.38 | 46913 | 62625 5 | 13:55.01 | 4:30.25 | 62626 | 82900 6 | 18:25.26 | 4:17.30 | 82901 | 102205
Track 1
Filename D:\Flac\Новая папка\01 ファントムペイン.wav
Pre-gap length 0:00:02.00
Peak level 100.0 % Extraction speed 4.7 X Track quality 100.0 % Test CRC 8D619DE1 Copy CRC 8D619DE1 Copy OK
Track 2
Filename D:\Flac\Новая папка\02 白いゼラニウム.wav
Pre-gap length 0:00:01.50
Peak level 100.0 % Extraction speed 5.2 X Track quality 100.0 % Test CRC 96E0762C Copy CRC 96E0762C Copy OK
Track 3
Filename D:\Flac\Новая папка\03 「THE KINKY」.wav
Pre-gap length 0:00:01.50
Peak level 100.0 % Extraction speed 5.5 X Track quality 100.0 % Test CRC 3E2E01E2 Copy CRC 3E2E01E2 Copy OK
Track 4
Filename D:\Flac\Новая папка\04 イノセント・ホリック.wav
Pre-gap length 0:00:02.00
Peak level 100.0 % Extraction speed 5.1 X Track quality 99.9 % Test CRC 160CC646 Copy CRC 160CC646 Copy OK
Track 5
Filename D:\Flac\Новая папка\05 ある日、世界は美しいと思った。.wav
Pre-gap length 0:00:02.10
Peak level 100.0 % Extraction speed 6.5 X Track quality 100.0 % Test CRC 3E4A6297 Copy CRC 3E4A6297 Copy OK
Track 6
Filename D:\Flac\Новая папка\06 KIDS WAR.wav
Pre-gap length 0:00:01.50
Peak level 100.0 % Extraction speed 6.8 X Track quality 100.0 % Test CRC E10774F6 Copy CRC E10774F6 Copy OK
No errors occurred
End of status report
==== Log checksum 8B075F7746CAE890A2329E1F5C9D736F045BE8CCAAFBB16AED4F4E0268129B0E ====

Содержание индексной карты (.CUE)

REM GENRE JRockREM DATE 2018REM DISCID 3F055206REM COMMENT "ExactAudioCopy v1.3"PERFORMER "DADAROMA"TITLE "This is “LIVE” "REM COMPOSER ""FILE "01 .........wav" WAVE TRACK 01 AUDIO TITLE "........ " PERFORMER "DADAROMA" REM COMPOSER "" INDEX 01 00:00:00 TRACK 02 AUDIO TITLE "....... " PERFORMER "DADAROMA" REM COMPOSER "" INDEX 00 03:08:50FILE "02 ........wav" WAVE INDEX 01 00:00:00 TRACK 03 AUDIO TITLE ".THE KINKY. " PERFORMER "DADAROMA" REM COMPOSER "" INDEX 00 03:47:10FILE "03 .THE KINKY..wav" WAVE INDEX 01 00:00:00 TRACK 04 AUDIO TITLE ".......... " PERFORMER "DADAROMA" REM COMPOSER "" INDEX 00 03:24:28FILE "04 ...........wav" WAVE INDEX 01 00:00:00 TRACK 05 AUDIO TITLE "............... " PERFORMER "DADAROMA" REM COMPOSER "" INDEX 00 03:27:28FILE "05 ................wav" WAVE INDEX 01 00:00:00 TRACK 06 AUDIO TITLE "KIDS WAR" PERFORMER "DADAROMA" REM COMPOSER "" INDEX 00 04:28:50FILE "06 KIDS WAR.wav" WAVE INDEX 01 00:00:00
Торрент файл перезалит в связи с заменой материала на рип с собственного CD.


[islamvillage.com]_t_5543193.torrent
Торрент: Зарегистрирован ·  [ 2019-01-06 19:01 ] ·  d8fa43f8148ad620ba5bbd8e67934f379550ee31

15 KB

Статус: проверено
Скачан: 0 раз
Размер: 176 MB
Оценка: 
(Голосов: 0)
Сказали спасибо: 0  Спасибо
Похожие темы
[Профиль]    [ЛС]
Показать сообщения:    
Ответить на тему

Текущее время: Сегодня 04:06

Часовой пояс: GMT + 7



Вы не можете начинать темы
Вы не можете отвечать на сообщения
Вы не можете редактировать свои сообщения
Вы не можете удалять свои сообщения
Вы не можете голосовать в опросах
Вы не можете прикреплять файлы к сообщениям
Вы можете скачивать файлы


They Shall Not Grow Old | Star Wars Clo (2003) | Watch movie