(JRock) [CD] DADAROMA - dadaism#4 (Type B) - 2018, FLAC (tracks+.cue), lossless

Ответить на тему
Статистика раздачи [Обновить пиров]
Размер:  221 MB   |    Зарегистрирован:  10 дней   |    Скачан:  0 раз

Полного источника не было: Никогда

 
   
 
 
 
Автор Сообщение

islamvillage.com

Создавать темы 06-Янв-2019 19:51

[Цитировать]

DADAROMA / dadaism#4 (Type B)
Жанр: JRock
Носитель: CD
Страна-производитель диска (релиза): Japan
Год издания: 2018
Издатель (лейбл): Timely Records
Номер по каталогу: TRCL - 0186
Страна исполнителя (группы): Japan
Аудиокодек: FLAC (*.flac)
Тип рипа: tracks+.cue
Битрейт аудио: lossless
Продолжительность: 00:31:32
Источник (релизер): собственный диск
Наличие сканов в содержимом раздачи: нет
Треклист:
1.蛍
2.部屋とブラジャーと私
3.トゥルリラ
4.カリスマロックスターは売れないぜ!
5.キスをしよう
6.A PLAIN
7.狼少年と毒林檎~piano ver.~

Лог создания рипа

Exact Audio Copy V1.3 from 2. September 2016
EAC extraction logfile from 14. December 2018, 23:18
DADAROMA / dadaism#4
Used drive : PIONEER BD-RW BDR-209D Adapter: 1 ID: 0
Read mode : SecureUtilize accurate stream : YesDefeat audio cache : YesMake use of C2 pointers : No
Read offset correction : 667Overread into Lead-In and Lead-Out : NoFill up missing offset samples with silence : YesDelete leading and trailing silent blocks : NoNull samples used in CRC calculations : YesUsed interface : Native Win32 interface for Win NT & 2000Gap handling : Appended to previous track
Used output format : User Defined EncoderSelected bitrate : 896 kBit/sQuality : HighAdd ID3 tag : NoCommand line compressor : C:\Program Files (x86)\Exact Audio Copy\Flac\flac.exeAdditional command line options : -V -8 -T "Genre=%genre%" -T "Artist=%artist%" -T "Title=%title%" -T "Album=%albumtitle%" -T "Date=%year%" -T "Tracknumber=%tracknr%" -T "Comment=%comment%" %source%
TOC of the extracted CD
Track | Start | Length | Start sector | End sector --------------------------------------------------------- 1 | 0:00.00 | 5:26.68 | 0 | 24517 2 | 5:26.68 | 4:00.42 | 24518 | 42559 3 | 9:27.35 | 4:13.47 | 42560 | 61581 4 | 13:41.07 | 4:13.45 | 61582 | 80601 5 | 17:54.52 | 3:48.72 | 80602 | 97773 6 | 21:43.49 | 3:47.36 | 97774 | 114834 7 | 25:31.10 | 6:01.38 | 114835 | 141947
Track 1
Filename D:\Flac\Новая папка\01 蛍.wav
Pre-gap length 0:00:02.00
Peak level 97.2 % Extraction speed 5.1 X Track quality 100.0 % Test CRC 3A4682A5 Copy CRC 3A4682A5 Copy OK
Track 2
Filename D:\Flac\Новая папка\02 部屋とブラジャーと私.wav
Pre-gap length 0:00:02.00
Peak level 98.3 % Extraction speed 5.5 X Track quality 100.0 % Test CRC B1FE6EE7 Copy CRC B1FE6EE7 Copy OK
Track 3
Filename D:\Flac\Новая папка\03 トゥルリラ.wav
Pre-gap length 0:00:01.00
Peak level 97.2 % Extraction speed 5.3 X Track quality 99.9 % Test CRC 1A616D90 Copy CRC 1A616D90 Copy OK
Track 4
Filename D:\Flac\Новая папка\04 カリスマロックスターは売れないぜ!.wav
Pre-gap length 0:00:02.00
Peak level 96.7 % Extraction speed 5.7 X Track quality 99.9 % Test CRC 1B0B0774 Copy CRC 1B0B0774 Copy OK
Track 5
Filename D:\Flac\Новая папка\05 キスをしよう.wav
Pre-gap length 0:00:01.50
Peak level 96.7 % Extraction speed 6.6 X Track quality 100.0 % Test CRC 64344F85 Copy CRC 64344F85 Copy OK
Track 6
Filename D:\Flac\Новая папка\06 A PLAIN.wav
Pre-gap length 0:00:02.00
Peak level 97.8 % Extraction speed 7.0 X Track quality 100.0 % Test CRC 3AFA7D07 Copy CRC 3AFA7D07 Copy OK
Track 7
Filename D:\Flac\Новая папка\07 狼少年と毒林檎~piano ver.~.wav
Pre-gap length 0:00:02.50
Peak level 93.7 % Extraction speed 7.7 X Track quality 100.0 % Test CRC AE2FAE23 Copy CRC AE2FAE23 Copy OK
No errors occurred
End of status report
==== Log checksum E8011ACCFB07196292C3A420E45A701E50939AF1C5024466EF33AA5B6735C601 ====

Содержание индексной карты (.CUE)

REM GENRE JRockREM DATE 2018REM DISCID 53076407REM COMMENT "ExactAudioCopy v1.3"PERFORMER "DADAROMA"TITLE "dadaism#4 "REM COMPOSER ""FILE "01 ..wav" WAVE TRACK 01 AUDIO TITLE "." PERFORMER "DADAROMA" REM COMPOSER "" INDEX 01 00:00:00 TRACK 02 AUDIO TITLE ".........." PERFORMER "DADAROMA" REM COMPOSER "" INDEX 00 05:24:68FILE "02 ...........wav" WAVE INDEX 01 00:00:00 TRACK 03 AUDIO TITLE "....." PERFORMER "DADAROMA" REM COMPOSER "" INDEX 00 03:59:42FILE "03 ......wav" WAVE INDEX 01 00:00:00 TRACK 04 AUDIO TITLE "................!" PERFORMER "DADAROMA" REM COMPOSER "" INDEX 00 04:11:47FILE "04 ................!.wav" WAVE INDEX 01 00:00:00 TRACK 05 AUDIO TITLE "......" PERFORMER "DADAROMA" REM COMPOSER "" INDEX 00 04:11:70FILE "05 .......wav" WAVE INDEX 01 00:00:00 TRACK 06 AUDIO TITLE "A PLAIN" PERFORMER "DADAROMA" REM COMPOSER "" INDEX 00 03:46:72FILE "06 A PLAIN.wav" WAVE INDEX 01 00:00:00 TRACK 07 AUDIO TITLE ".......~piano ver.~" PERFORMER "DADAROMA" REM COMPOSER "" INDEX 00 03:44:61FILE "07 .......~piano ver.~.wav" WAVE INDEX 01 00:00:00


[islamvillage.com]_t_5659826.torrent
Торрент: Зарегистрирован ·  [ 2019-01-06 19:01 ] ·  69d651357596a2310718eaac5b9417b559261811

18 KB

Статус: проверено
Скачан: 0 раз
Размер: 221 MB
Оценка: 
(Голосов: 0)
Сказали спасибо: 0  Спасибо
Похожие темы
[Профиль]    [ЛС]
Показать сообщения:    
Ответить на тему

Текущее время: Сегодня 03:36

Часовой пояс: GMT + 7



Вы не можете начинать темы
Вы не можете отвечать на сообщения
Вы не можете редактировать свои сообщения
Вы не можете удалять свои сообщения
Вы не можете голосовать в опросах
Вы не можете прикреплять файлы к сообщениям
Вы можете скачивать файлы


Señora acero Tempora | Miscellaneous | Watch Movie