(Experimental, Dark Ambient, Drone Metal, Dub, Electronic, Free Improvisation, Math Rock, Noise Rock, Post-Hardcore, Psychedelic Rock) Blind Idiot God + Azonic - Discography - 1987-2017 [8CD], FLAC (tracks+.cue), lossless

Ответить на тему
Статистика раздачи [Обновить пиров]
Размер:  2.39 GB   |    Зарегистрирован:  10 дней   |    Скачан:  0 раз

Полного источника не было: Никогда

 
   
 
 
 
Автор Сообщение

islamvillage.com

Создавать темы 06-Янв-2019 19:53

[Цитировать]

Blind Idiot God + AzonicДискография Жанр: Experimental
Год издания: 1982 –
Носитель: CD
Издатель (лейбл): Indivisible
Страна: United States of America
Аудиокодек: FLAC (*.flac)
Тип рипа: tracks+.cue
Битрейт аудио: lossless
Продолжительность: 6:57:18
Источник (релизер): What.CD
Наличие сканов в содержимом раздачи: нет
-

Blind Idiot God1987 - Blind Idiot God

Label: SST
Catalog#: 104
Продолжительность: 00:42:28
Трэклист:
1. "Stravinsky/Blasting Off" (2:17)
2. "Shifting Sand" (3:38)
3. "Tired Blood" (5:00)
4. "Wide Open Spaces" (5:00)
5. "Subterranean Flight" (4:48)
6. "More Time" (2:37)
7. "Dark & Bright" (4:51)
8. "Wise Man Dub" (4:33)
9. "Stealth Dub" (4:44)
10. "Raining Dub" (5:00)-

Лог создания рипа

Exact Audio Copy V1.1 from 23. June 2015
EAC extraction logfile from 13. February 2017, 0:00
Blind Idiot God / Blind Idiot God
Used drive : HL-DT-STBD-RE BH10LS30 Adapter: 1 ID: 0
Read mode : SecureUtilize accurate stream : YesDefeat audio cache : YesMake use of C2 pointers : No
Read offset correction : 667Overread into Lead-In and Lead-Out : NoFill up missing offset samples with silence : YesDelete leading and trailing silent blocks : NoNull samples used in CRC calculations : YesUsed interface : Native Win32 interface for Win NT & 2000Gap handling : Appended to previous track
Used output format : User Defined EncoderSelected bitrate : 896 kBit/sQuality : HighAdd ID3 tag : NoCommand line compressor : C:\Program Files\flac-1.3.1-win\win64\flac.exeAdditional command line options : -8 -e -V -T "ARTIST=%artist%" -T "TITLE=%title%" -T "ALBUM=%albumtitle%" -T "DATE=%year%" -T "TRACKNUMBER=%tracknr%" -T "GENRE=%genre%" -T "PERFORMER=%albuminterpret%" -T "COMPOSER=%composer%" %haslyrics%--tag-from-file=LYRICS="%lyricsfile%"%haslyrics% -T "ALBUMARTIST=%albumartist%" -T "DISCNUMBER=%cdnumber%" -T "TOTALDISCS=%totalcds%" -T "TOTALTRACKS=%numtracks%" -T "COMMENT=%comment%" %source% -o %dest%
TOC of the extracted CD
Track | Start | Length | Start sector | End sector --------------------------------------------------------- 1 | 0:00.37 | 2:17.00 | 37 | 10311 2 | 2:17.37 | 3:38.10 | 10312 | 26671 3 | 5:55.47 | 5:00.15 | 26672 | 49186 4 | 10:55.62 | 4:59.60 | 49187 | 71671 5 | 15:55.47 | 4:47.38 | 71672 | 93234 6 | 20:43.10 | 2:36.60 | 93235 | 104994 7 | 23:19.70 | 4:51.02 | 104995 | 126821 8 | 28:10.72 | 4:33.28 | 126822 | 147324 9 | 32:44.25 | 4:43.57 | 147325 | 168606 10 | 37:28.07 | 5:00.35 | 168607 | 191141
Track 1
Filename C:\EAC\Blind Idiot God - Blind Idiot God (1987) - FLAC\01 - Stravinsky - Blasting Off.wav
Pre-gap length 0:00:02.49
Peak level 92.7 % Extraction speed 0.9 X Track quality 100.0 % Test CRC 8A136D15 Copy CRC 8A136D15 Accurately ripped (confidence 6) [66100482] (AR v1) Copy OK
Track 2
Filename C:\EAC\Blind Idiot God - Blind Idiot God (1987) - FLAC\02 - Blind Idiot God - Shifting Sand.wav
Peak level 95.2 % Extraction speed 1.0 X Track quality 99.9 % Test CRC 9A9D3296 Copy CRC 9A9D3296 Accurately ripped (confidence 6) [C125A280] (AR v1) Copy OK
Track 3
Filename C:\EAC\Blind Idiot God - Blind Idiot God (1987) - FLAC\03 - Blind Idiot God - Tired Blood.wav
Peak level 87.0 % Extraction speed 1.3 X Track quality 100.0 % Test CRC 9CD5A0AC Copy CRC 9CD5A0AC Accurately ripped (confidence 6) [195C5B0D] (AR v1) Copy OK
Track 4
Filename C:\EAC\Blind Idiot God - Blind Idiot God (1987) - FLAC\04 - Blind Idiot God - Wide Open Spaces.wav
Pre-gap length 0:00:02.80
Peak level 87.8 % Extraction speed 1.3 X Track quality 99.9 % Test CRC F7CD556F Copy CRC F7CD556F Accurately ripped (confidence 6) [FDFC9F4F] (AR v1) Copy OK
Track 5
Filename C:\EAC\Blind Idiot God - Blind Idiot God (1987) - FLAC\05 - Blind Idiot God - Subterranean Flight.wav
Pre-gap length 0:00:02.20
Peak level 100.0 % Extraction speed 1.4 X Track quality 99.9 % Test CRC 2F36E198 Copy CRC 2F36E198 Accurately ripped (confidence 6) [34D17F85] (AR v1) Copy OK
Track 6
Filename C:\EAC\Blind Idiot God - Blind Idiot God (1987) - FLAC\06 - Blind Idiot God - More Time.wav
Pre-gap length 0:00:02.02
Peak level 96.9 % Extraction speed 1.5 X Track quality 100.0 % Test CRC 38AEDE1A Copy CRC 38AEDE1A Accurately ripped (confidence 6) [7104618B] (AR v1) Copy OK
Track 7
Filename C:\EAC\Blind Idiot God - Blind Idiot God (1987) - FLAC\07 - Blind Idiot God - Dark & Bright.wav
Pre-gap length 0:00:01.13
Peak level 100.0 % Extraction speed 1.7 X Track quality 100.0 % Test CRC 26AA610F Copy CRC 26AA610F Accurately ripped (confidence 6) [E5DEDD6B] (AR v1) Copy OK
Track 8
Filename C:\EAC\Blind Idiot God - Blind Idiot God (1987) - FLAC\08 - Blind Idiot God - Wise Man Dub.wav
Pre-gap length 0:00:01.13
Peak level 100.0 % Extraction speed 1.8 X Track quality 100.0 % Test CRC 649C7788 Copy CRC 649C7788 Accurately ripped (confidence 6) [3286E966] (AR v1) Copy OK
Track 9
Filename C:\EAC\Blind Idiot God - Blind Idiot God (1987) - FLAC\09 - Blind Idiot God - Stealth Dub.wav
Pre-gap length 0:00:00.49
Peak level 73.6 % Extraction speed 1.9 X Track quality 100.0 % Test CRC 111C6191 Copy CRC 111C6191 Accurately ripped (confidence 6) [82203C39] (AR v1) Copy OK
Track 10
Filename C:\EAC\Blind Idiot God - Blind Idiot God (1987) - FLAC\10 - Blind Idiot God - Raining Dub.wav
Pre-gap length 0:00:01.29
Peak level 82.4 % Extraction speed 1.8 X Track quality 99.9 % Test CRC 152E4A03 Copy CRC 152E4A03 Accurately ripped (confidence 6) [06A227AF] (AR v1) Copy OK
All tracks accurately ripped
No errors occurred
End of status report
---- CUETools DB Plugin V2.1.6
[CTDB TOCID: jpj9r3s5BGSe40rnDuC2Tncbobc-] foundSubmit result: jpj9r3s5BGSe40rnDuC2Tncbobc- has been confirmedTrack | CTDB Status 1 | (4/4) Accurately ripped 2 | (4/4) Accurately ripped 3 | (4/4) Accurately ripped 4 | (4/4) Accurately ripped 5 | (4/4) Accurately ripped 6 | (4/4) Accurately ripped 7 | (4/4) Accurately ripped 8 | (4/4) Accurately ripped 9 | (4/4) Accurately ripped 10 | (4/4) Accurately ripped
==== Log checksum 77C2806EF7D36AC89A5BB96EEFA3149D5EFF40A7BE37A3D437A5E7F03FA6C51D ====

Содержание индексной карты (.CUE)

REM DATE 1987REM DISCID 8809F40AREM COMMENT "ExactAudioCopy v1.1"CATALOG 0000000000000PERFORMER "Blind Idiot God"TITLE "Blind Idiot God"FILE "01 Stravinsky-Blasting Off.flac" WAVE TRACK 01 AUDIO TITLE "Stravinsky/Blasting Off" PERFORMER "Stravinsky" PREGAP 00:00:37 INDEX 01 00:00:00FILE "02 Shifting Sand.flac" WAVE TRACK 02 AUDIO TITLE "Shifting Sand" PERFORMER "Blind Idiot God" INDEX 01 00:00:00FILE "03 Tired Blood.flac" WAVE TRACK 03 AUDIO TITLE "Tired Blood" PERFORMER "Blind Idiot God" INDEX 01 00:00:00 TRACK 04 AUDIO TITLE "Wide Open Spaces" PERFORMER "Blind Idiot God" INDEX 00 04:57:30FILE "04 Wide Open Spaces.flac" WAVE INDEX 01 00:00:00 TRACK 05 AUDIO TITLE "Subterranean Flight" PERFORMER "Blind Idiot God" INDEX 00 04:57:45FILE "05 Subterranean Flight.flac" WAVE INDEX 01 00:00:00 TRACK 06 AUDIO TITLE "More Time" PERFORMER "Blind Idiot God" INDEX 00 04:45:36FILE "06 More Time.flac" WAVE INDEX 01 00:00:00 TRACK 07 AUDIO TITLE "Dark & Bright" PERFORMER "Blind Idiot God" INDEX 00 02:35:50FILE "07 Dark & Bright.flac" WAVE INDEX 01 00:00:00 TRACK 08 AUDIO TITLE "Wise Man Dub" PERFORMER "Blind Idiot God" INDEX 00 04:49:67FILE "08 Wise Man Dub.flac" WAVE INDEX 01 00:00:00 TRACK 09 AUDIO TITLE "Stealth Dub" PERFORMER "Blind Idiot God" INDEX 00 04:32:66FILE "09 Stealth Dub.flac" WAVE INDEX 01 00:00:00 TRACK 10 AUDIO TITLE "Raining Dub" PERFORMER "Blind Idiot God" INDEX 00 04:42:35FILE "10 Raining Dub.flac" WAVE INDEX 01 00:00:00

1988 - Undertow(RE 006) [1991, Original issue]

Label: Enemy
Catalog#: EMY 107
Продолжительность: 00:41:05
Трэклист:
1. "Sawtooth" (2:22)
2. "Clockwork Dub" (4:29)
3. "Atomic Whip" (4:28)
4. "Watch Yer Step" (3:14)
5. "Drowning" (6:04)
6. "Major Key Dub" (4:10)
7. "Alice in My Fantasies" (Funkadelic cover) (2:56)
8. "Rollercoaster" (4:35)
9. "Dubbing in the Sinai" (3:49)
10. "Wailing Wall" (3:05)
11. "Purged Specimen" (1:53)-

Лог создания рипа

Exact Audio Copy V1.1 from 23. June 2015
EAC extraction logfile from 4. December 2016, 2:19
Blind Idiot God / Undertow
Used drive : HL-DT-STBD-RE BH10LS30 Adapter: 1 ID: 0
Read mode : SecureUtilize accurate stream : YesDefeat audio cache : YesMake use of C2 pointers : No
Read offset correction : 667Overread into Lead-In and Lead-Out : NoFill up missing offset samples with silence : YesDelete leading and trailing silent blocks : NoNull samples used in CRC calculations : YesUsed interface : Native Win32 interface for Win NT & 2000Gap handling : Appended to previous track
Used output format : User Defined EncoderSelected bitrate : 896 kBit/sQuality : HighAdd ID3 tag : NoCommand line compressor : C:\Program Files\flac-1.3.1-win\win64\flac.exeAdditional command line options : -8 -e -V -T "ARTIST=%artist%" -T "TITLE=%title%" -T "ALBUM=%albumtitle%" -T "DATE=%year%" -T "TRACKNUMBER=%tracknr%" -T "GENRE=%genre%" -T "PERFORMER=%albuminterpret%" -T "COMPOSER=%composer%" %haslyrics%--tag-from-file=LYRICS="%lyricsfile%"%haslyrics% -T "ALBUMARTIST=%albumartist%" -T "DISCNUMBER=%cdnumber%" -T "TOTALDISCS=%totalcds%" -T "TOTALTRACKS=%numtracks%" -T "COMMENT=%comment%" %source% -o %dest%
TOC of the extracted CD
Track | Start | Length | Start sector | End sector --------------------------------------------------------- 1 | 0:00.33 | 2:21.62 | 33 | 10669 2 | 2:22.20 | 4:29.30 | 10670 | 30874 3 | 6:51.50 | 4:27.53 | 30875 | 50952 4 | 11:19.28 | 3:13.55 | 50953 | 65482 5 | 14:33.08 | 6:04.37 | 65483 | 92819 6 | 20:37.45 | 4:10.00 | 92820 | 111569 7 | 24:47.45 | 2:55.38 | 111570 | 124732 8 | 27:43.08 | 4:35.37 | 124733 | 145394 9 | 32:18.45 | 3:49.08 | 145395 | 162577 10 | 36:07.53 | 3:05.15 | 162578 | 176467 11 | 39:12.68 | 1:52.65 | 176468 | 184932
Track 1
Filename C:\EAC\Blind Idiot God - Undertow (1989) - FLAC\01 - Sawtooth.wav
Pre-gap length 0:00:02.44
Peak level 66.7 % Extraction speed 0.9 X Track quality 100.0 % Test CRC 6E1DE86A Copy CRC 6E1DE86A Accurately ripped (confidence 5) [1B92CCF5] (AR v1) Copy OK
Track 2
Filename C:\EAC\Blind Idiot God - Undertow (1989) - FLAC\02 - Clockwork Dub.wav
Pre-gap length 0:00:00.80
Peak level 80.5 % Extraction speed 1.2 X Track quality 100.0 % Test CRC AAD19CAC Copy CRC AAD19CAC Accurately ripped (confidence 6) [194E4F38] (AR v1) Copy OK
Track 3
Filename C:\EAC\Blind Idiot God - Undertow (1989) - FLAC\03 - Atomic Whip.wav
Pre-gap length 0:00:02.02
Peak level 81.5 % Extraction speed 1.3 X Track quality 100.0 % Test CRC 5CB157A0 Copy CRC 5CB157A0 Accurately ripped (confidence 6) [A21432C3] (AR v1) Copy OK
Track 4
Filename C:\EAC\Blind Idiot God - Undertow (1989) - FLAC\04 - Watch Yer Step.wav
Pre-gap length 0:00:01.30
Peak level 60.5 % Extraction speed 1.3 X Track quality 100.0 % Test CRC 78B5DFCE Copy CRC 78B5DFCE Accurately ripped (confidence 6) [0559221B] (AR v1) Copy OK
Track 5
Filename C:\EAC\Blind Idiot God - Undertow (1989) - FLAC\05 - Drowning.wav
Pre-gap length 0:00:00.53
Peak level 59.3 % Extraction speed 1.6 X Track quality 100.0 % Test CRC 88D74631 Copy CRC 88D74631 Accurately ripped (confidence 5) [2F27811B] (AR v1) Copy OK
Track 6
Filename C:\EAC\Blind Idiot God - Undertow (1989) - FLAC\06 - Major Key Dub.wav
Pre-gap length 0:00:02.06
Peak level 59.7 % Extraction speed 1.4 X Track quality 99.9 % Test CRC 0B2264E1 Copy CRC 0B2264E1 Accurately ripped (confidence 5) [7534C77C] (AR v1) Copy OK
Track 7
Filename C:\EAC\Blind Idiot God - Undertow (1989) - FLAC\07 - Alice In My Fantasies.wav
Pre-gap length 0:00:01.46
Peak level 73.8 % Extraction speed 1.6 X Track quality 100.0 % Test CRC E0B19311 Copy CRC E0B19311 Accurately ripped (confidence 5) [BAC639AE] (AR v1) Copy OK
Track 8
Filename C:\EAC\Blind Idiot God - Undertow (1989) - FLAC\08 - Rollercoaster.wav
Pre-gap length 0:00:00.70
Peak level 78.3 % Extraction speed 1.8 X Track quality 100.0 % Test CRC 86EF933D Copy CRC 86EF933D Accurately ripped (confidence 5) [6A04F396] (AR v1) Copy OK
Track 9
Filename C:\EAC\Blind Idiot God - Undertow (1989) - FLAC\09 - Dubbing In The Sinai.wav
Pre-gap length 0:00:01.20
Peak level 63.0 % Extraction speed 1.8 X Track quality 100.0 % Test CRC BDF9520F Copy CRC BDF9520F Accurately ripped (confidence 6) [6050717F] (AR v1) Copy OK
Track 10
Filename C:\EAC\Blind Idiot God - Undertow (1989) - FLAC\10 - Wailing Wall.wav
Pre-gap length 0:00:01.20
Peak level 69.1 % Extraction speed 1.8 X Track quality 100.0 % Test CRC C98D79F6 Copy CRC C98D79F6 Accurately ripped (confidence 5) [EA134502] (AR v1) Copy OK
Track 11
Filename C:\EAC\Blind Idiot God - Undertow (1989) - FLAC\11 - Purged Specimen.wav
Pre-gap length 0:00:00.20
Peak level 74.4 % Extraction speed 1.7 X Track quality 100.0 % Test CRC 77F1E42C Copy CRC 77F1E42C Accurately ripped (confidence 5) [7EA34858] (AR v1) Copy OK
All tracks accurately ripped
No errors occurred
End of status report
---- CUETools DB Plugin V2.1.6
[CTDB TOCID: gYkATR3zjCAmxIdwJnjYBGek1yk-] foundSubmit result: gYkATR3zjCAmxIdwJnjYBGek1yk- has been confirmedTrack | CTDB Status 1 | (4/4) Accurately ripped 2 | (4/4) Accurately ripped 3 | (4/4) Accurately ripped 4 | (4/4) Accurately ripped 5 | (4/4) Accurately ripped 6 | (4/4) Accurately ripped 7 | (4/4) Accurately ripped 8 | (4/4) Accurately ripped 9 | (4/4) Accurately ripped 10 | (4/4) Accurately ripped 11 | (4/4) Accurately ripped
==== Log checksum 3C57BBA3E9DDCCEBC0A7D9C697C69FB2F46D0D1323A84A464ECEF8B50911D3B7 ====

Содержание индексной карты (.CUE)

REM DATE 1988REM DISCID 9B09A10BREM COMMENT "ExactAudioCopy v1.1"CATALOG 0000000000000PERFORMER "Blind Idiot God"TITLE "Undertow"FILE "01 Sawtooth.flac" WAVE TRACK 01 AUDIO TITLE "Sawtooth" PERFORMER "Blind Idiot God" PREGAP 00:00:33 INDEX 01 00:00:00 TRACK 02 AUDIO TITLE "Clockwork Dub" PERFORMER "Blind Idiot God" INDEX 00 02:21:02FILE "02 Clockwork Dub.flac" WAVE INDEX 01 00:00:00 TRACK 03 AUDIO TITLE "Atomic Whip" PERFORMER "Blind Idiot God" INDEX 00 04:27:28FILE "03 Atomic Whip.flac" WAVE INDEX 01 00:00:00 TRACK 04 AUDIO TITLE "Watch Yer Step" PERFORMER "Blind Idiot God" INDEX 00 04:26:30FILE "04 Watch Yer Step.flac" WAVE INDEX 01 00:00:00 TRACK 05 AUDIO TITLE "Drowning" PERFORMER "Blind Idiot God" INDEX 00 03:13:15FILE "05 Drowning.flac" WAVE INDEX 01 00:00:00 TRACK 06 AUDIO TITLE "Major Key Dub" PERFORMER "Blind Idiot God" INDEX 00 06:02:32FILE "06 Major Key Dub.flac" WAVE INDEX 01 00:00:00 TRACK 07 AUDIO TITLE "Alice in My Fantasies" PERFORMER "Blind Idiot God" INDEX 00 04:08:40FILE "07 Alice in My Fantasies.flac" WAVE INDEX 01 00:00:00 TRACK 08 AUDIO TITLE "Rollercoaster" PERFORMER "Blind Idiot God" INDEX 00 02:54:60FILE "08 Rollercoaster.flac" WAVE INDEX 01 00:00:00 TRACK 09 AUDIO TITLE "Dubbing in the Sinai" PERFORMER "Blind Idiot God" INDEX 00 04:34:22FILE "09 Dubbing in the Sinai.flac" WAVE INDEX 01 00:00:00 TRACK 10 AUDIO TITLE "Wailing Wall" PERFORMER "Blind Idiot God" INDEX 00 03:47:68FILE "10 Wailing Wall.flac" WAVE INDEX 01 00:00:00 TRACK 11 AUDIO TITLE "Purged Specimen" PERFORMER "Blind Idiot God" INDEX 00 03:05:00FILE "11 Purged Specimen.flac" WAVE INDEX 01 00:00:00

(INDM0002.2.4) [2017, Remastered]

Label: Indivisible
Catalog#: INDM0002.2.4
Продолжительность: 00:48:22
Трэклист:
1. "Sawtooth" (2:22)
2. "Clockwork Dub" (4:29)
3. "Atomic Whip" (4:28)
4. "Watch Yer Step" (3:14)
5. "Drowning" (6:04)
6. "Major Key Dub" (4:10)
7. "Alice in My Fantasies" (Funkadelic cover) (2:56)
8. "Rollercoaster" (4:35)
9. "Dubbing in the Sinai" (3:49)
10. "Wailing Wall" (3:09)
11. "Freaked" [Long Version] (4:27)
12. "Purged Specimen" (1:55)
13. "Freaked" [Title Version] (2:44)-

Лог создания рипа

Exact Audio Copy V1.3 from 2. September 2016
EAC extraction logfile from 29. May 2018, 20:51
Blind Idiot God / Undertow
Used drive : HL-DT-STDVD-RAM GHC0N Adapter: 1 ID: 0
Read mode : SecureUtilize accurate stream : YesDefeat audio cache : YesMake use of C2 pointers : No
Read offset correction : 6Overread into Lead-In and Lead-Out : NoFill up missing offset samples with silence : YesDelete leading and trailing silent blocks : NoNull samples used in CRC calculations : YesUsed interface : Native Win32 interface for Win NT & 2000Gap handling : Appended to previous track
Used output format : User Defined EncoderSelected bitrate : 1024 kBit/sQuality : HighAdd ID3 tag : NoCommand line compressor : C:\Program Files (x86)\foobar2000\encoders\flac.exeAdditional command line options : -8 -e -p -V -T "ARTIST=%artist%" -T "TITLE=%title%" -T "ALBUM=%albumtitle%" -T "DATE=%year%" -T "TRACKNUMBER=%tracknr%" -T "GENRE=%genre%" -T "PERFORMER=%albuminterpret%" -T "COMPOSER=%composer%" %haslyrics%--tag-from-file=LYRICS="%lyricsfile%"%haslyrics% -T "ALBUMARTIST=%albumartist%" -T "DISCNUMBER=%cdnumber%" -T "TOTALDISCS=%totalcds%" -T "TOTALTRACKS=%numtracks%" -T "COMMENT=%comment%" %source% -o %dest%
TOC of the extracted CD
Track | Start | Length | Start sector | End sector --------------------------------------------------------- 1 | 0:00.00 | 2:21.62 | 0 | 10636 2 | 2:21.62 | 4:29.30 | 10637 | 30841 3 | 6:51.17 | 4:27.53 | 30842 | 50919 4 | 11:18.70 | 3:13.55 | 50920 | 65449 5 | 14:32.50 | 6:04.37 | 65450 | 92786 6 | 20:37.12 | 4:10.00 | 92787 | 111536 7 | 24:47.12 | 2:55.38 | 111537 | 124699 8 | 27:42.50 | 4:35.37 | 124700 | 145361 9 | 32:18.12 | 3:49.08 | 145362 | 162544 10 | 36:07.20 | 3:09.09 | 162545 | 176728 11 | 39:16.29 | 4:26.61 | 176729 | 196739 12 | 43:43.15 | 1:54.42 | 196740 | 205331 13 | 45:37.57 | 2:44.02 | 205332 | 217633
Track 1
Filename C:\Users\Neil\Desktop\Blind Idiot God - Undertow [Remastered]\01 Sawtooth.wav
Pre-gap length 0:00:02.00
Peak level 94.4 % Extraction speed 2.3 X Track quality 100.0 % Test CRC E4D534C8 Copy CRC E4D534C8 Track not present in AccurateRip database Copy OK
Track 2
Filename C:\Users\Neil\Desktop\Blind Idiot God - Undertow [Remastered]\02 Clockwork.wav
Peak level 94.3 % Extraction speed 2.8 X Track quality 100.0 % Test CRC 048807AC Copy CRC 048807AC Track not present in AccurateRip database Copy OK
Track 3
Filename C:\Users\Neil\Desktop\Blind Idiot God - Undertow [Remastered]\03 Atomic Whip.wav
Peak level 94.4 % Extraction speed 3.1 X Track quality 100.0 % Test CRC FE822AD2 Copy CRC FE822AD2 Track not present in AccurateRip database Copy OK
Track 4
Filename C:\Users\Neil\Desktop\Blind Idiot God - Undertow [Remastered]\04 Watch Yer Step.wav
Peak level 94.3 % Extraction speed 3.1 X Track quality 100.0 % Test CRC DD1A7CA3 Copy CRC DD1A7CA3 Track not present in AccurateRip database Copy OK
Track 5
Filename C:\Users\Neil\Desktop\Blind Idiot God - Undertow [Remastered]\05 Drowning.wav
Peak level 94.4 % Extraction speed 3.7 X Track quality 100.0 % Test CRC 2C8C9679 Copy CRC 2C8C9679 Track not present in AccurateRip database Copy OK
Track 6
Filename C:\Users\Neil\Desktop\Blind Idiot God - Undertow [Remastered]\06 Major Key Dub.wav
Peak level 94.3 % Extraction speed 3.4 X Track quality 99.9 % Test CRC E8236501 Copy CRC E8236501 Track not present in AccurateRip database Copy OK
Track 7
Filename C:\Users\Neil\Desktop\Blind Idiot God - Undertow [Remastered]\07 Alice in My Fantasies.wav
Peak level 94.4 % Extraction speed 3.7 X Track quality 100.0 % Test CRC 8CAB8F67 Copy CRC 8CAB8F67 Track not present in AccurateRip database Copy OK
Track 8
Filename C:\Users\Neil\Desktop\Blind Idiot God - Undertow [Remastered]\08 Rollercoaster.wav
Peak level 94.4 % Extraction speed 4.1 X Track quality 100.0 % Test CRC 1A10B5A7 Copy CRC 1A10B5A7 Track not present in AccurateRip database Copy OK
Track 9
Filename C:\Users\Neil\Desktop\Blind Idiot God - Undertow [Remastered]\09 Dubbing in the Sinai.wav
Peak level 94.4 % Extraction speed 4.2 X Track quality 100.0 % Test CRC C1223631 Copy CRC C1223631 Track not present in AccurateRip database Copy OK
Track 10
Filename C:\Users\Neil\Desktop\Blind Idiot God - Undertow [Remastered]\10 Wailing Wall.wav
Peak level 94.4 % Extraction speed 4.2 X Track quality 100.0 % Test CRC 3CE018A4 Copy CRC 3CE018A4 Track not present in AccurateRip database Copy OK
Track 11
Filename C:\Users\Neil\Desktop\Blind Idiot God - Undertow [Remastered]\11 Freaked [Long Version].wav
Peak level 94.4 % Extraction speed 4.6 X Track quality 100.0 % Test CRC 585B6F6B Copy CRC 585B6F6B Track not present in AccurateRip database Copy OK
Track 12
Filename C:\Users\Neil\Desktop\Blind Idiot God - Undertow [Remastered]\12 Purged Specimen.wav
Peak level 94.4 % Extraction speed 3.9 X Track quality 100.0 % Test CRC A81F7525 Copy CRC A81F7525 Track not present in AccurateRip database Copy OK
Track 13
Filename C:\Users\Neil\Desktop\Blind Idiot God - Undertow [Remastered]\13 Freaked [Title Version].wav
Peak level 94.4 % Extraction speed 3.7 X Track quality 99.9 % Test CRC 2E31AC12 Copy CRC 2E31AC12 Track not present in AccurateRip database Copy OK
None of the tracks are present in the AccurateRip database
No errors occurred
End of status report
---- CUETools DB Plugin V2.1.6
[CTDB TOCID: SZmL7kRM0KUABnEs56qkGZ_ST8U-] disk not present in databaseSubmit result: SZmL7kRM0KUABnEs56qkGZ_ST8U- has been uploaded
==== Log checksum A257F6BCFB446D3B27711F1E6AD61B21623DE0CD14E5A9ABC6CC3A41F6319341 ====

Содержание индексной карты (.CUE)

REM GENRE "Noise Rock"REM DATE 1988REM DISCID BF0B550DREM COMMENT "ExactAudioCopy v1.3"PERFORMER "Blind Idiot God"TITLE "Undertow"FILE "01 Sawtooth.flac" WAVE TRACK 01 AUDIO TITLE "Sawtooth" PERFORMER "Blind Idiot God" ISRC QZ9MD1700001 FLAGS DCP INDEX 01 00:00:00FILE "02 Clockwork Dub.flac" WAVE TRACK 02 AUDIO TITLE "Clockwork Dub" PERFORMER "Blind Idiot God" ISRC QZ9MD1700002 FLAGS DCP INDEX 01 00:00:00FILE "03 Atomic Whip.flac" WAVE TRACK 03 AUDIO TITLE "Atomic Whip" PERFORMER "Blind Idiot God" ISRC QZ9MD1700003 FLAGS DCP INDEX 01 00:00:00FILE "04 Watch Yer Step.flac" WAVE TRACK 04 AUDIO TITLE "Watch Yer Step" PERFORMER "Blind Idiot God" ISRC QZ9MD1700004 FLAGS DCP INDEX 01 00:00:00FILE "05 Drowning.flac" WAVE TRACK 05 AUDIO TITLE "Drowning" PERFORMER "Blind Idiot God" ISRC QZ9MD1700005 FLAGS DCP INDEX 01 00:00:00FILE "06 Major Key Dub.flac" WAVE TRACK 06 AUDIO TITLE "Major Key Dub" PERFORMER "Blind Idiot God" ISRC QZ9MD1700006 FLAGS DCP INDEX 01 00:00:00FILE "07 Alice in My Fantasies.flac" WAVE TRACK 07 AUDIO TITLE "Alice in My Fantasies" PERFORMER "Blind Idiot God" ISRC QZ9MD1700007 FLAGS DCP INDEX 01 00:00:00FILE "08 Rollercoaster.flac" WAVE TRACK 08 AUDIO TITLE "Rollercoaster" PERFORMER "Blind Idiot God" ISRC QZ9MD1700008 FLAGS DCP INDEX 01 00:00:00FILE "09 Dubbing in the Sinai.flac" WAVE TRACK 09 AUDIO TITLE "Dubbing in the Sinai" PERFORMER "Blind Idiot God" ISRC QZ9MD1700009 FLAGS DCP INDEX 01 00:00:00FILE "10 Wailing Wall.flac" WAVE TRACK 10 AUDIO TITLE "Wailing Wall" PERFORMER "Blind Idiot God" ISRC QZ9MD1700010 FLAGS DCP INDEX 01 00:00:00FILE "11 Freaked [Long Version].flac" WAVE TRACK 11 AUDIO TITLE "Freaked [Long Version]" PERFORMER "Blind Idiot God" ISRC QZ9MD1700011 FLAGS DCP INDEX 01 00:00:00FILE "12 Purged Specimen.flac" WAVE TRACK 12 AUDIO TITLE "Purged Specimen" PERFORMER "Blind Idiot God" ISRC QZ9MD1700012 FLAGS DCP INDEX 01 00:00:00FILE "13 Freaked [Title Version].flac" WAVE TRACK 13 AUDIO TITLE "Freaked [Title Version]" PERFORMER "Blind Idiot God" ISRC QZ9MD1700013 FLAGS DCP INDEX 01 00:00:00

1992 - Cyclotron

Label: Avant
Catalog#: AVAN 010
Продолжительность: 00:51:56
Трэклист:
1. "747" (4:16)
2. "Slackjaw" (4:52)
3. "Ground Lift" (4:02)
4. "Thunderhead" (4:40)
5. "Head On" (3:56)
6. "Hangtime" (5:00)
7. "Cloudcover" (2:43)
8. "Cold Start" (5:03)
9. "Death Hollow Canyon, Utah" (6:37)
10. "Easing Back" (2:45)
11. "Broadside" (3:26)
12. "Dead Continent Dub" (4:36)-

Лог создания рипа

Exact Audio Copy V0.99 prebeta 5 from 4. May 2009
EAC extraction logfile from 17. July 2010, 17:56
Blind Idiot God / Cyclotron
Used drive : HL-DT-STDVD+-RW GSA-T21N Adapter: 0 ID: 0
Read mode : SecureUtilize accurate stream : YesDefeat audio cache : YesMake use of C2 pointers : No
Read offset correction : 667Overread into Lead-In and Lead-Out : NoFill up missing offset samples with silence : YesDelete leading and trailing silent blocks : NoNull samples used in CRC calculations : YesUsed interface : Native Win32 interface for Win NT & 2000Gap handling : Appended to previous track
Used output format : User Defined EncoderSelected bitrate : 1024 kBit/sQuality : HighAdd ID3 tag : NoCommand line compressor : C:\Program Files\Exact Audio Copy\FLAC\FLAC.EXEAdditional command line options : -V -5 -T "artist=%a" -T "title=%t" -T "album=%g" -T "date=%y" -T "tracknumber=%n" -T "genre=%m" %s
TOC of the extracted CD
Track | Start | Length | Start sector | End sector --------------------------------------------------------- 1 | 0:00.00 | 4:16.07 | 0 | 19206 2 | 4:16.07 | 4:51.55 | 19207 | 41086 3 | 9:07.62 | 4:01.68 | 41087 | 59229 4 | 13:09.55 | 4:39.65 | 59230 | 80219 5 | 17:49.45 | 3:55.62 | 80220 | 97906 6 | 21:45.32 | 5:00.00 | 97907 | 120406 7 | 26:45.32 | 2:43.05 | 120407 | 132636 8 | 29:28.37 | 5:02.50 | 132637 | 155336 9 | 34:31.12 | 6:37.33 | 155337 | 185144 10 | 41:08.45 | 2:45.30 | 185145 | 197549 11 | 43:54.00 | 3:26.07 | 197550 | 213006 12 | 47:20.07 | 4:35.48 | 213007 | 233679
Track 1
Filename G:\music\Blind Idiot God-Cyclotron-1992-Flac\(01) 747.wav
Pre-gap length 0:00:02.00
Peak level 97.7 % Track quality 100.0 % Test CRC 96D5B1C9 Copy CRC 96D5B1C9 Accurately ripped (confidence 2) [2BFE0694] Copy OK
Track 2
Filename G:\music\Blind Idiot God-Cyclotron-1992-Flac\(02) Slackjaw.wav
Peak level 97.7 % Track quality 100.0 % Test CRC 7CB9896C Copy CRC 7CB9896C Accurately ripped (confidence 2) [CC1E192C] Copy OK
Track 3
Filename G:\music\Blind Idiot God-Cyclotron-1992-Flac\(03) Ground Lift.wav
Peak level 97.7 % Track quality 100.0 % Test CRC C0F0673F Copy CRC C0F0673F Accurately ripped (confidence 2) [52F362A7] Copy OK
Track 4
Filename G:\music\Blind Idiot God-Cyclotron-1992-Flac\(04) Thunderhead.wav
Pre-gap length 0:00:00.50
Peak level 97.7 % Track quality 100.0 % Test CRC 38A2D920 Copy CRC 38A2D920 Accurately ripped (confidence 3) [471E4487] Copy OK
Track 5
Filename G:\music\Blind Idiot God-Cyclotron-1992-Flac\(05) Head On.wav
Peak level 97.7 % Track quality 100.0 % Test CRC FE1EE2EB Copy CRC FE1EE2EB Accurately ripped (confidence 2) [C83D184E] Copy OK
Track 6
Filename G:\music\Blind Idiot God-Cyclotron-1992-Flac\(06) Hantime.wav
Pre-gap length 0:00:02.22
Peak level 97.7 % Track quality 100.0 % Test CRC 92BD36ED Copy CRC 92BD36ED Accurately ripped (confidence 2) [94E387C8] Copy OK
Track 7
Filename G:\music\Blind Idiot God-Cyclotron-1992-Flac\(07) Cloudcover.wav
Pre-gap length 0:00:01.42
Peak level 77.3 % Track quality 100.0 % Test CRC 7660B2B1 Copy CRC 7660B2B1 Accurately ripped (confidence 2) [ED4EDD00] Copy OK
Track 8
Filename G:\music\Blind Idiot God-Cyclotron-1992-Flac\(08) Cold Start.wav
Pre-gap length 0:00:00.86
Peak level 97.7 % Track quality 100.0 % Test CRC 651EA4AE Copy CRC 651EA4AE Accurately ripped (confidence 2) [D03FF9A3] Copy OK
Track 9
Filename G:\music\Blind Idiot God-Cyclotron-1992-Flac\(09) Death Hollow Canyon, Utah.wav
Pre-gap length 0:00:00.86
Peak level 97.7 % Track quality 100.0 % Test CRC 3FD5F572 Copy CRC 3FD5F572 Accurately ripped (confidence 2) [7F6DB097] Copy OK
Track 10
Filename G:\music\Blind Idiot God-Cyclotron-1992-Flac\(10) Easing Back.wav
Pre-gap length 0:00:00.24
Peak level 97.7 % Track quality 100.0 % Test CRC 5AE1135D Copy CRC 5AE1135D Accurately ripped (confidence 2) [32591BED] Copy OK
Track 11
Filename G:\music\Blind Idiot God-Cyclotron-1992-Flac\(11) Broadside.wav
Peak level 97.7 % Track quality 100.0 % Test CRC D9AEA9A8 Copy CRC D9AEA9A8 Accurately ripped (confidence 2) [8ACDABD6] Copy OK
Track 12
Filename G:\music\Blind Idiot God-Cyclotron-1992-Flac\(12) Dead Continent Dub.wav
Pre-gap length 0:00:02.02
Peak level 100.0 % Track quality 99.9 % Test CRC BD3EE62F Copy CRC BD3EE62F Accurately ripped (confidence 2) [300CB2F0] Copy OK
All tracks accurately ripped
No errors occurred
End of status report

Содержание индексной карты (.CUE)

REM DISCID 9F0C2B0CREM COMMENT "ExactAudioCopy v0.99pb5"FILE "01 747.flac" WAVE TRACK 01 AUDIO INDEX 01 00:00:00FILE "02 Slackjaw.flac" WAVE TRACK 02 AUDIO INDEX 01 00:00:00FILE "03 Ground Lift.flac" WAVE TRACK 03 AUDIO INDEX 01 00:00:00 TRACK 04 AUDIO INDEX 00 04:01:30FILE "04 Thunderhead.flac" WAVE INDEX 01 00:00:00FILE "05 Head On.flac" WAVE TRACK 05 AUDIO INDEX 01 00:00:00 TRACK 06 AUDIO INDEX 00 03:53:45FILE "06 Hangtime.flac" WAVE INDEX 01 00:00:00 TRACK 07 AUDIO INDEX 00 04:58:43FILE "07 Cloudcover.flac" WAVE INDEX 01 00:00:00 TRACK 08 AUDIO INDEX 00 02:42:15FILE "08 Cold Start.flac" WAVE INDEX 01 00:00:00 TRACK 09 AUDIO INDEX 00 05:01:60FILE "09 Death Hollow Canyon, Utah.flac" WAVE INDEX 01 00:00:00 TRACK 10 AUDIO INDEX 00 06:37:15FILE "10 Easing Back.flac" WAVE INDEX 01 00:00:00FILE "11 Broadside.flac" WAVE TRACK 11 AUDIO INDEX 01 00:00:00 TRACK 12 AUDIO INDEX 00 03:24:05FILE "12 Dead Continent Dub.flac" WAVE INDEX 01 00:00:00

2015 - Before Ever After

Label: Indivisible
Catalog#: INDM0001.2.4
Продолжительность: 01:15:25
Трэклист:
1. "Twenty Four Hour Dawn" (8:50)
2. "High and Mighty" (5:51)
3. "Antiquity" (3:39)
4. "Earthmover " (6:21)
5. "Night Driver" (6:25)
6. "Wheels of Progress" (7:53)
7. "Ramshackle" (4:34)
8. "Voice of the Structure" (4:37)
9. "Under the Weight" (3:58)
10. "FUB" (6:44)
11. "Barrage" (5:43)
12. "Strung" (6:16)
13. "Shutdown" (4:33)-

Лог создания рипа

Exact Audio Copy V1.3 from 2. September 2016
EAC extraction logfile from 11. June 2018, 19:36
Blind Idiot God / Before Ever After
Used drive : HL-DT-STDVD-RAM GHC0N Adapter: 1 ID: 0
Read mode : SecureUtilize accurate stream : YesDefeat audio cache : YesMake use of C2 pointers : No
Read offset correction : 6Overread into Lead-In and Lead-Out : NoFill up missing offset samples with silence : YesDelete leading and trailing silent blocks : NoNull samples used in CRC calculations : YesUsed interface : Native Win32 interface for Win NT & 2000Gap handling : Appended to previous track
Used output format : User Defined EncoderSelected bitrate : 1024 kBit/sQuality : HighAdd ID3 tag : NoCommand line compressor : C:\Program Files (x86)\foobar2000\encoders\flac.exeAdditional command line options : -8 -e -p -V -T "ARTIST=%artist%" -T "TITLE=%title%" -T "ALBUM=%albumtitle%" -T "DATE=%year%" -T "TRACKNUMBER=%tracknr%" -T "GENRE=%genre%" -T "PERFORMER=%albuminterpret%" -T "COMPOSER=%composer%" %haslyrics%--tag-from-file=LYRICS="%lyricsfile%"%haslyrics% -T "ALBUMARTIST=%albumartist%" -T "DISCNUMBER=%cdnumber%" -T "TOTALDISCS=%totalcds%" -T "TOTALTRACKS=%numtracks%" -T "COMMENT=%comment%" %source% -o %dest%
TOC of the extracted CD
Track | Start | Length | Start sector | End sector --------------------------------------------------------- 1 | 0:00.00 | 8:50.32 | 0 | 39781 2 | 8:50.32 | 5:50.61 | 39782 | 66092 3 | 14:41.18 | 3:39.30 | 66093 | 82547 4 | 18:20.48 | 6:21.04 | 82548 | 111126 5 | 24:41.52 | 6:25.26 | 111127 | 140027 6 | 31:07.03 | 7:53.25 | 140028 | 175527 7 | 39:00.28 | 4:34.35 | 175528 | 196112 8 | 43:34.63 | 4:36.47 | 196113 | 216859 9 | 48:11.35 | 3:57.61 | 216860 | 234695 10 | 52:09.21 | 6:44.21 | 234696 | 265016 11 | 58:53.42 | 5:42.52 | 265017 | 290718 12 | 64:36.19 | 6:15.56 | 290719 | 318899 13 | 70:52.00 | 4:32.67 | 318900 | 339366
Track 1
Filename C:\Blind Idiot God - Before Ever After [FLAC]\01 Twenty Four Hour Dawn.wav
Pre-gap length 0:00:02.00
Peak level 96.0 % Extraction speed 3.3 X Track quality 100.0 % Test CRC 7AB6C1C2 Copy CRC 7AB6C1C2 Track not present in AccurateRip database Copy OK
Track 2
Filename C:\Blind Idiot God - Before Ever After [FLAC]\02 High and Mighty.wav
Peak level 95.9 % Extraction speed 3.7 X Track quality 100.0 % Test CRC C4095A1E Copy CRC C4095A1E Track not present in AccurateRip database Copy OK
Track 3
Filename C:\Blind Idiot God - Before Ever After [FLAC]\03 Antiquity.wav
Peak level 96.0 % Extraction speed 3.8 X Track quality 100.0 % Test CRC 01C9740C Copy CRC 01C9740C Track not present in AccurateRip database Copy OK
Track 4
Filename C:\Blind Idiot God - Before Ever After [FLAC]\04 Earthmover.wav
Peak level 96.0 % Extraction speed 4.3 X Track quality 100.0 % Test CRC D00E6659 Copy CRC D00E6659 Track not present in AccurateRip database Copy OK
Track 5
Filename C:\Blind Idiot God - Before Ever After [FLAC]\05 Night Driver.wav
Peak level 94.7 % Extraction speed 4.6 X Track quality 100.0 % Test CRC ED082396 Copy CRC ED082396 Track not present in AccurateRip database Copy OK
Track 6
Filename C:\Blind Idiot God - Before Ever After [FLAC]\06 Wheels of Progress.wav
Peak level 96.0 % Extraction speed 5.1 X Track quality 100.0 % Test CRC BF26CBCC Copy CRC BF26CBCC Track not present in AccurateRip database Copy OK
Track 7
Filename C:\Blind Idiot God - Before Ever After [FLAC]\07 Ramshackle.wav
Peak level 96.0 % Extraction speed 5.1 X Track quality 100.0 % Test CRC 7F346A92 Copy CRC 7F346A92 Track not present in AccurateRip database Copy OK
Track 8
Filename C:\Blind Idiot God - Before Ever After [FLAC]\08 Voice of the Structure.wav
Peak level 86.4 % Extraction speed 5.2 X Track quality 100.0 % Test CRC ED4253A0 Copy CRC ED4253A0 Track not present in AccurateRip database Copy OK
Track 9
Filename C:\Blind Idiot God - Before Ever After [FLAC]\09 Under the Weight.wav
Peak level 96.0 % Extraction speed 5.4 X Track quality 100.0 % Test CRC B569AFA8 Copy CRC B569AFA8 Track not present in AccurateRip database Copy OK
Track 10
Filename C:\Blind Idiot God - Before Ever After [FLAC]\10 FUB.wav
Peak level 83.3 % Extraction speed 5.9 X Track quality 100.0 % Test CRC 1173E8D0 Copy CRC 1173E8D0 Track not present in AccurateRip database Copy OK
Track 11
Filename C:\Blind Idiot God - Before Ever After [FLAC]\11 Barrage.wav
Peak level 96.0 % Extraction speed 6.1 X Track quality 100.0 % Test CRC 5CE30751 Copy CRC 5CE30751 Track not present in AccurateRip database Copy OK
Track 12
Filename C:\Blind Idiot God - Before Ever After [FLAC]\12 Strung.wav
Peak level 96.0 % Extraction speed 6.1 X Track quality 100.0 % Test CRC C3CFD508 Copy CRC C3CFD508 Track not present in AccurateRip database Copy OK
Track 13
Filename C:\Blind Idiot God - Before Ever After [FLAC]\13 Shutdown.wav
Peak level 95.9 % Extraction speed 4.9 X Track quality 99.9 % Test CRC E55B7790 Copy CRC E55B7790 Track not present in AccurateRip database Copy OK
None of the tracks are present in the AccurateRip database
No errors occurred
End of status report
---- CUETools DB Plugin V2.1.6
[CTDB TOCID: Ta022PFuwMxwCE7rVzOuIGcTzoQ-] foundSubmit result: Ta022PFuwMxwCE7rVzOuIGcTzoQ- has been confirmedTrack | CTDB Status 1 | (3/3) Accurately ripped 2 | (3/3) Accurately ripped 3 | (3/3) Accurately ripped 4 | (3/3) Accurately ripped 5 | (3/3) Accurately ripped 6 | (3/3) Accurately ripped 7 | (3/3) Accurately ripped 8 | (3/3) Accurately ripped 9 | (3/3) Accurately ripped 10 | (3/3) Accurately ripped 11 | (3/3) Accurately ripped 12 | (3/3) Accurately ripped 13 | (3/3) Accurately ripped
==== Log checksum 4383F41E0D5803BF28710189D924CB549ADDE54B9C73D6D8F9A04C00B322E452 ====

Содержание индексной карты (.CUE)

REM GENRE "Noise Rock"REM DATE 2015REM DISCID BC11AC0DREM COMMENT "ExactAudioCopy v1.3"PERFORMER "Blind Idiot God"TITLE "Before Ever After"FILE "01 Twenty Four Hour Dawn.flac" WAVE TRACK 01 AUDIO TITLE "Twenty Four Hour Dawn" PERFORMER "Blind Idiot God" ISRC QM88A1400001 FLAGS DCP INDEX 01 00:00:00FILE "02 High and Mighty.flac" WAVE TRACK 02 AUDIO TITLE "High and Mighty" PERFORMER "Blind Idiot God" ISRC QM88A1400002 FLAGS DCP INDEX 01 00:00:00FILE "03 Antiquity.flac" WAVE TRACK 03 AUDIO TITLE "Antiquity" PERFORMER "Blind Idiot God" ISRC QM88A1400003 FLAGS DCP INDEX 01 00:00:00FILE "04 Earthmover.flac" WAVE TRACK 04 AUDIO TITLE "Earthmover" PERFORMER "Blind Idiot God" ISRC QM88A1400004 FLAGS DCP INDEX 01 00:00:00FILE "05 Night Driver.flac" WAVE TRACK 05 AUDIO TITLE "Night Driver" PERFORMER "Blind Idiot God" ISRC QM88A1400005 FLAGS DCP INDEX 01 00:00:00FILE "06 Wheels of Progress.flac" WAVE TRACK 06 AUDIO TITLE "Wheels of Progress" PERFORMER "Blind Idiot God" ISRC QM88A1400006 FLAGS DCP INDEX 01 00:00:00FILE "07 Ramshackle.flac" WAVE TRACK 07 AUDIO TITLE "Ramshackle" PERFORMER "Blind Idiot God" ISRC QM88A1400007 FLAGS DCP INDEX 01 00:00:00FILE "08 Voice of the Structure.flac" WAVE TRACK 08 AUDIO TITLE "Voice of the Structure" PERFORMER "Blind Idiot God" ISRC QM88A1400008 FLAGS DCP INDEX 01 00:00:00FILE "09 Under the Weight.flac" WAVE TRACK 09 AUDIO TITLE "Under the Weight" PERFORMER "Blind Idiot God" ISRC QM88A1400009 FLAGS DCP INDEX 01 00:00:00FILE "10 FUB.flac" WAVE TRACK 10 AUDIO TITLE "FUB" PERFORMER "Blind Idiot God" ISRC QM88A1400010 FLAGS DCP INDEX 01 00:00:00FILE "11 Barrage.flac" WAVE TRACK 11 AUDIO TITLE "Barrage" PERFORMER "Blind Idiot God" ISRC QM88A1400011 FLAGS DCP INDEX 01 00:00:00FILE "12 Strung.flac" WAVE TRACK 12 AUDIO TITLE "Strung" PERFORMER "Blind Idiot God" ISRC QM88A1400012 FLAGS DCP INDEX 01 00:00:00FILE "13 Shutdown.flac" WAVE TRACK 13 AUDIO TITLE "Shutdown" PERFORMER "Blind Idiot God" ISRC QM88A1400013 FLAGS DCP INDEX 01 00:00:00

Azonic (Andy Hawkins)1994 - Halo

Label: Strata
Catalog#: 0002
Продолжительность: 00:46:05
Трэклист:
1. "Beyond the Pale" (10:16)
2. "Shore" (12:33)
3. "Headwaters" (11:25)
4. "Raze" (11:51)-

Лог создания рипа

Exact Audio Copy V1.0 beta 3 from 29. August 2011
EAC extraction logfile from 22. May 2012, 2:40
Halo / Azonic
Used drive : Optiarc DVD+-RW AD-7560S Adapter: 1 ID: 0
Read mode : SecureUtilize accurate stream : YesDefeat audio cache : YesMake use of C2 pointers : No
Read offset correction : 6Overread into Lead-In and Lead-Out : NoFill up missing offset samples with silence : YesDelete leading and trailing silent blocks : NoNull samples used in CRC calculations : YesUsed interface : Native Win32 interface for Win NT & 2000Gap handling : Appended to previous track
Used output format : User Defined EncoderSelected bitrate : 1024 kBit/sQuality : HighAdd ID3 tag : NoCommand line compressor : C:\Program Files\Exact Audio Copy\Flac\flac.exeAdditional command line options : -8 -V -T "ARTIST=%artist%" -T "TITLE=%title%" -T "ALBUM=%albumtitle%" -T "DATE=%year%" -T "TRACKNUMBER=%tracknr%" -T "GENRE=%genre%" -T "PERFORMER=%albuminterpret%" -T "COMPOSER=%composer%" %haslyrics%--tag-from-file=LYRICS="%lyricsfile%"%haslyrics% -T "ALBUMARTIST=%albumartist%" -T "DISCNUMBER=%cdnumber%" -T "TOTALDISCS=%totalcds%" -T "TOTALTRACKS=%numtracks%" -T "COMMENT=%comment%" %source% -o %dest%
TOC of the extracted CD
Track | Start | Length | Start sector | End sector --------------------------------------------------------- 1 | 0:00.33 | 10:16.55 | 33 | 46287 2 | 10:17.13 | 12:33.62 | 46288 | 102824 3 | 22:51.00 | 11:25.30 | 102825 | 154229 4 | 34:16.30 | 11:50.63 | 154230 | 207542
Track 1
Filename C:\EAC\01 Beyond the Pale.wav
Pre-gap length 0:00:02.44
Peak level 100.0 % Extraction speed 2.8 X Track quality 99.9 % Test CRC DFAD2991 Copy CRC DFAD2991 Accurately ripped (confidence 2) [09031D4C] (AR v1) Copy OK
Track 2
Filename C:\EAC\02 Shore.wav
Peak level 100.0 % Extraction speed 3.5 X Track quality 99.9 % Test CRC 1EEB2724 Copy CRC 1EEB2724 Accurately ripped (confidence 2) [351C11EE] (AR v1) Copy OK
Track 3
Filename C:\EAC\03 Headwaters.wav
Peak level 100.0 % Extraction speed 3.7 X Track quality 99.9 % Test CRC 8076B220 Copy CRC 8076B220 Accurately ripped (confidence 2) [4C3770D1] (AR v1) Copy OK
Track 4
Filename C:\EAC\04 Raze.wav
Peak level 97.6 % Extraction speed 3.9 X Track quality 99.9 % Test CRC A2BF4DB8 Copy CRC A2BF4DB8 Accurately ripped (confidence 2) [E54A3F17] (AR v1) Copy OK
All tracks accurately ripped
No errors occurred
End of status report
==== Log checksum 3638FD7CA3A6B7D10061DE0DD09A561DBF639589E260A7838C16A11C6543C8C3 ====

Содержание индексной карты (.CUE)

REM GENRE AmbientREM DATE 1994REM DISCID 2F0ACF04REM COMMENT "ExactAudioCopy v1.0b3"PERFORMER "Azonic"TITLE "Halo"FILE "01 Beyond the Pale.flac" WAVE TRACK 01 AUDIO TITLE "Beyond the Pale" PERFORMER "Azonic" PREGAP 00:00:33 INDEX 01 00:00:00FILE "02 Shore.flac" WAVE TRACK 02 AUDIO TITLE "Shore" PERFORMER "Azonic" INDEX 01 00:00:00FILE "03 Headwaters.flac" WAVE TRACK 03 AUDIO TITLE "Headwaters" PERFORMER "Azonic" INDEX 01 00:00:00FILE "04 Raze.flac" WAVE TRACK 04 AUDIO TITLE "Raze" PERFORMER "Azonic" INDEX 01 00:00:00

1995 - Subsonic 3: Skinner's Black Laboratories (w/Justin Broadrick of Godflesh)

Label: Sub Rosa
Catalog#: SR 90
Продолжительность: 01:04:05
Трэклист:
1. "Guitar One" (9:03)
2. "Guitar Two" (7:25)
3. "Guitar Three" (10:23)
4. "Guitar Four/Infinite" (13:38)
5. "River Blindness" (10:09)
6. "Nine Tails" (13:27)-

Лог создания рипа

Exact Audio Copy V1.3 from 2. September 2016
EAC extraction logfile from 15. September 2017, 19:40
Justin Broadrick / Andy Hawkins : Azonic / Skinner's Black Laboratories
Used drive : ATAPI iHAS122 F Adapter: 1 ID: 0
Read mode : SecureUtilize accurate stream : YesDefeat audio cache : YesMake use of C2 pointers : No
Read offset correction : 6Overread into Lead-In and Lead-Out : NoFill up missing offset samples with silence : YesDelete leading and trailing silent blocks : NoNull samples used in CRC calculations : YesUsed interface : Native Win32 interface for Win NT & 2000Gap handling : Appended to previous track
Used output format : User Defined EncoderSelected bitrate : 128 kBit/sQuality : HighAdd ID3 tag : NoCommand line compressor : C:\Program Files (x86)\Exact Audio Copy\Flac\flac.exeAdditional command line options : -V -8 -T "Genre=%genre%" -T "Artist=%artist%" -T "Title=%title%" -T "Album=%albumtitle%" -T "Date=%year%" -T "Tracknumber=%tracknr%" -T "Comment=%comment%" %source%
TOC of the extracted CD
Track | Start | Length | Start sector | End sector --------------------------------------------------------- 1 | 0:00.32 | 9:03.28 | 32 | 40784 2 | 9:03.60 | 7:25.67 | 40785 | 74226 3 | 16:29.52 | 10:23.15 | 74227 | 120966 4 | 26:52.67 | 13:38.53 | 120967 | 182369 5 | 40:31.45 | 10:09.30 | 182370 | 228074 6 | 50:41.00 | 13:27.65 | 228075 | 288664
Track 1
Filename F:\MyCD-iPooh27\01 - Justin Broadrick - Guitar One.wav
Pre-gap length 0:00:02.32
Peak level 97.7 % Extraction speed 5.9 X Track quality 100.0 % Test CRC EC010141 Copy CRC EC010141 Accurately ripped (confidence 2) [949599F1] (AR v2) Copy OK
Track 2
Filename F:\MyCD-iPooh27\02 - Justin Broadrick - Guitar Two.wav
Pre-gap length 0:00:01.50
Peak level 97.7 % Extraction speed 6.9 X Track quality 100.0 % Test CRC 5035E7E7 Copy CRC 5035E7E7 Accurately ripped (confidence 3) [8A8CDA71] (AR v2) Copy OK
Track 3
Filename F:\MyCD-iPooh27\03 - Justin Broadrick - Guitar Three.wav
Pre-gap length 0:00:01.50
Peak level 97.7 % Extraction speed 8.1 X Track quality 100.0 % Test CRC 9E172732 Copy CRC 9E172732 Accurately ripped (confidence 3) [D7B8237F] (AR v2) Copy OK
Track 4
Filename F:\MyCD-iPooh27\04 - Justin Broadrick - Guitar Four , Infinite.wav
Pre-gap length 0:00:01.50
Peak level 97.7 % Extraction speed 9.1 X Track quality 99.9 % Test CRC 86B026B9 Copy CRC 86B026B9 Accurately ripped (confidence 3) [102F2864] (AR v2) Copy OK
Track 5
Filename F:\MyCD-iPooh27\05 - Andy Hawkins - River Blindness.wav
Pre-gap length 0:00:01.50
Peak level 96.8 % Extraction speed 10.3 X Track quality 100.0 % Test CRC A4E488B8 Copy CRC A4E488B8 Accurately ripped (confidence 3) [1086CBA1] (AR v2) Copy OK
Track 6
Filename F:\MyCD-iPooh27\06 - Andy Hawkins - Nine Tails.wav
Pre-gap length 0:00:01.50
Peak level 95.9 % Extraction speed 11.4 X Track quality 100.0 % Test CRC 1D4A4FB1 Copy CRC 1D4A4FB1 Accurately ripped (confidence 3) [40774DA6] (AR v2) Copy OK
All tracks accurately ripped
No errors occurred
End of status report
---- CUETools DB Plugin V2.1.6
[CTDB TOCID: 0h8uOvv4zLh8kJL0WwZ8CrnMtpo-] foundSubmit result: 0h8uOvv4zLh8kJL0WwZ8CrnMtpo- has been confirmedTrack | CTDB Status 1 | (3/3) Accurately ripped 2 | (3/3) Accurately ripped 3 | (3/3) Accurately ripped 4 | (3/3) Accurately ripped 5 | (3/3) Accurately ripped 6 | (3/3) Accurately ripped
==== Log checksum 5E15112DC4C85AA4DF1E6462CF60E9857517AF55D93B6DDC6E365F8A6F4D55E3 ====

Содержание индексной карты (.CUE)

REM DATE 1995REM DISCID 450F0806REM COMMENT "ExactAudioCopy v1.3"CATALOG 0000000000000PERFORMER "Justin K. Broadrick/Andy Hawkins: Azonic"TITLE "Subsonic 3: Skinner's Black Laboratories"FILE "01 Guitar One.flac" WAVE TRACK 01 AUDIO TITLE "Guitar One" PERFORMER "Justin K Broadrick" PREGAP 00:00:32 INDEX 01 00:00:00 TRACK 02 AUDIO TITLE "Guitar Two" PERFORMER "Justin K Broadrick" INDEX 00 09:01:53FILE "02 Guitar Two.flac" WAVE INDEX 01 00:00:00 TRACK 03 AUDIO TITLE "Guitar Three" PERFORMER "Justin K Broadrick" INDEX 00 07:24:17FILE "03 Guitar Three.flac" WAVE INDEX 01 00:00:00 TRACK 04 AUDIO TITLE "Guitar Four/Infinite" PERFORMER "Justin K Broadrick" INDEX 00 10:21:40FILE "04 Guitar Four-Infinite.flac" WAVE INDEX 01 00:00:00 TRACK 05 AUDIO TITLE "River Blindness" PERFORMER "Azonic" INDEX 00 13:37:03FILE "05 River Blindness.flac" WAVE INDEX 01 00:00:00 TRACK 06 AUDIO TITLE "Nine Tails" PERFORMER "Azonic" INDEX 00 10:07:55FILE "06 Nine Tails.flac" WAVE INDEX 01 00:00:00

2017 - Prospect of the Deep Volume One

Label: Indivisible
Catalog#: INDM0003.2.4
Продолжительность: 00:47:48
Трэклист:
1. "Oblivion of the Deep" (18:53)
2. "The Argonaut's Reckoning" (18:42)
3. "Voices of the Drowned" (10:12)-

Лог создания рипа

Exact Audio Copy V1.3 from 2. September 2016
EAC extraction logfile from 29. May 2018, 21:25
Azonic / Prospect of the Deep Volume One
Used drive : HL-DT-STDVD-RAM GHC0N Adapter: 1 ID: 0
Read mode : SecureUtilize accurate stream : YesDefeat audio cache : YesMake use of C2 pointers : No
Read offset correction : 6Overread into Lead-In and Lead-Out : NoFill up missing offset samples with silence : YesDelete leading and trailing silent blocks : NoNull samples used in CRC calculations : YesUsed interface : Native Win32 interface for Win NT & 2000Gap handling : Appended to previous track
Used output format : User Defined EncoderSelected bitrate : 1024 kBit/sQuality : HighAdd ID3 tag : NoCommand line compressor : C:\Program Files (x86)\foobar2000\encoders\flac.exeAdditional command line options : -8 -e -p -V -T "ARTIST=%artist%" -T "TITLE=%title%" -T "ALBUM=%albumtitle%" -T "DATE=%year%" -T "TRACKNUMBER=%tracknr%" -T "GENRE=%genre%" -T "PERFORMER=%albuminterpret%" -T "COMPOSER=%composer%" %haslyrics%--tag-from-file=LYRICS="%lyricsfile%"%haslyrics% -T "ALBUMARTIST=%albumartist%" -T "DISCNUMBER=%cdnumber%" -T "TOTALDISCS=%totalcds%" -T "TOTALTRACKS=%numtracks%" -T "COMMENT=%comment%" %source% -o %dest%
TOC of the extracted CD
Track | Start | Length | Start sector | End sector --------------------------------------------------------- 1 | 0:00.00 | 18:53.12 | 0 | 84986 2 | 18:53.12 | 18:42.28 | 84987 | 169164 3 | 37:35.40 | 10:12.13 | 169165 | 215077
Track 1
Filename C:\Users\Neil\Desktop\Azonic - Prospect of the Deep Volume One [FLAC]\01 Oblivion of the Deep.wav
Pre-gap length 0:00:02.00
Peak level 94.4 % Extraction speed 3.4 X Track quality 100.0 % Test CRC C7EE0F7B Copy CRC C7EE0F7B Track not present in AccurateRip database Copy OK
Track 2
Filename C:\Users\Neil\Desktop\Azonic - Prospect of the Deep Volume One [FLAC]\02 The Argonaut's Reckoning.wav
Peak level 94.4 % Extraction speed 4.4 X Track quality 100.0 % Test CRC 75D7F360 Copy CRC 75D7F360 Track not present in AccurateRip database Copy OK
Track 3
Filename C:\Users\Neil\Desktop\Azonic - Prospect of the Deep Volume One [FLAC]\03 Voices of the Drowned.wav
Peak level 94.4 % Extraction speed 4.7 X Track quality 99.9 % Test CRC CF3F1DAB Copy CRC CF3F1DAB Track not present in AccurateRip database Copy OK
None of the tracks are present in the AccurateRip database
No errors occurred
End of status report
---- CUETools DB Plugin V2.1.6
[CTDB TOCID: lWeqUrt37L7CW3e4ZoULNLjlrzg-] disk not present in databaseSubmit result: lWeqUrt37L7CW3e4ZoULNLjlrzg- has been uploaded
==== Log checksum A3ACADFD3AC70E3D6E64C3B4112C9F12597EE8CC0D72C3658FE23D0C58F4639E ====

Содержание индексной карты (.CUE)

REM GENRE AmbientREM DATE 2017REM DISCID 1C0B3303REM COMMENT "ExactAudioCopy v1.3"PERFORMER "Azonic"TITLE "Prospect of the Deep Volume One"FILE "01 Oblivion of the Deep.flac" WAVE TRACK 01 AUDIO TITLE "Oblivion of the Deep" PERFORMER "Azonic" ISRC QZ9MD1700014 FLAGS DCP INDEX 01 00:00:00FILE "02 The Argonaut's Reckoning.flac" WAVE TRACK 02 AUDIO TITLE "The Argonaut's Reckoning" PERFORMER "Azonic" ISRC QZ9MD1700015 FLAGS DCP INDEX 01 00:00:00FILE "03 Voices of the Drowned.flac" WAVE TRACK 03 AUDIO TITLE "Voices of the Drowned" PERFORMER "Azonic" ISRC QZ9MD1700016 FLAGS DCP INDEX 01 00:00:00


[islamvillage.com]_t_5162694.torrent
Торрент: Зарегистрирован ·  [ 2019-01-06 19:01 ] ·  7f78bca6596acb6f230bbcdfe46c3e795eab4f83

23 KB

Статус: проверено
Скачан: 0 раз
Размер: 2.39 GB
Оценка: 
(Голосов: 0)
Сказали спасибо: 0  Спасибо
Похожие темы
[Профиль]    [ЛС]
Показать сообщения:    
Ответить на тему

Текущее время: Сегодня 03:40

Часовой пояс: GMT + 7



Вы не можете начинать темы
Вы не можете отвечать на сообщения
Вы не можете редактировать свои сообщения
Вы не можете удалять свои сообщения
Вы не можете голосовать в опросах
Вы не можете прикреплять файлы к сообщениям
Вы можете скачивать файлы


Lucrezia Tosi | Ned's Newt | Glass Door Knob Pair Set Rod 2 Vintage Hardware Salvage Crystal 2.25 diameter