(Industrial Metal) [CD] Treponem Pal - Дискография (14 релизов, 17 CD) - 1989-2013, FLAC (image+.cue), lossless

Ответить на тему
Статистика раздачи [Обновить пиров]
Размер:  5.04 GB   |    Зарегистрирован:  10 дней   |    Скачан:  0 раз

Полного источника не было: Никогда

 
   
 
 
 
Автор Сообщение

islamvillage.com

Создавать темы 06-Янв-2019 19:53

[Цитировать]


Lossless Group представляет:Treponem Pal
Дискография
Эта же раздача в MP3 320
Жанр: Industrial Metal
Год выхода диска: 1989-2013
Страна: Франция
Производитель диска: Голландия, Польша, США, Франция
Продолжительность: 14 релизов, 17 CD
Аудио кодек: FLAC (*.flac)
Тип рипа: image+.cue
Битрейт аудио: lossless
Метод рипа: EAC test+copy
hexonut [Lossless Group, Torrentc]. Все рипы с фирменных дисков из личной коллекции.
Комплектация: Для каждого диска: FLAC со встроенным cue, отдельные cue для wav и flac, .toc file для cdrdao, полный набор сканов, логи.
Доп. информация: Отличный французский метал-индастриал.
Издания:
Альбомы 1989, 1991 и 1993 годов - в оригинальном и ремастер-изданиях (см 2008-Furytales).
Остальные - как они издавались.
Furytales также включает не издававшийся ранее концертник Live In Europe и бонус-DVD (раздается отдельно здесь уже не раздается, раздача умерла из-за отсутствия сидов)
Трэклист:

1989-Treponem Pal

Лейбл: RC Records
Страна-производитель диска: США
Год издания диска: 1989
Номер по каталогу: RCD 9456
Treponem Pal - 1989 - Treponem Pal
01. Silico (03:48)
02. The Black Box (03:33)
03. Embodiement Of Frustration (05:24)
04. The Prettiest Star (02:28)
05. In-Out (05:59)
06. Too Many Humans (03:15)
07. Low Man (05:31)
08. Soft Mouth Vagina (03:36)
Продолжительность: 00:33:34

EAC Log

Exact Audio Copy V1.0 beta 1 from 15. November 2010
EAC extraction logfile from 21. March 2011, 21:00
Treponem Pal / Treponem Pal
Used drive : PLEXTOR CD-R PX-240A Adapter: 1 ID: 1
Read mode : SecureUtilize accurate stream : YesDefeat audio cache : YesMake use of C2 pointers : No
Read offset correction : 6Overread into Lead-In and Lead-Out : NoFill up missing offset samples with silence : YesDelete leading and trailing silent blocks : NoNull samples used in CRC calculations : YesUsed interface : Installed external ASPI interface
Used output format : Internal WAV RoutinesSample format : 44.100 Hz; 16 Bit; Stereo
TOC of the extracted CD
Track | Start | Length | Start sector | End sector --------------------------------------------------------- 1 | 0:00.00 | 3:49.70 | 0 | 17244 2 | 3:49.70 | 3:33.13 | 17245 | 33232 3 | 7:23.08 | 5:24.57 | 33233 | 57589 4 | 12:47.65 | 2:28.68 | 57590 | 68757 5 | 15:16.58 | 5:56.52 | 68758 | 95509 6 | 21:13.35 | 3:18.05 | 95510 | 110364 7 | 24:31.40 | 5:32.15 | 110365 | 135279 8 | 30:03.55 | 3:30.25 | 135280 | 151054
Range status and errors
Selected range
Filename Z:\data\mp3\Seeding Archive\Treponem Pal\1990-Treponem Pal\Treponem Pal.wav
Peak level 100.0 % Extraction speed 0.8 X Range quality 100.0 % Test CRC E41AF844 Copy CRC E41AF844 Copy OK
No errors occurred
AccurateRip summary
Track 1 cannot be verified as accurate (confidence 1) [C355AAF7], AccurateRip returned [82FF3814]Track 2 cannot be verified as accurate (confidence 1) [E147298D], AccurateRip returned [837F9642]Track 3 cannot be verified as accurate (confidence 1) [649E86D3], AccurateRip returned [64A77353]Track 4 cannot be verified as accurate (confidence 1) [0ABD87EA], AccurateRip returned [24CBFE4C]Track 5 cannot be verified as accurate (confidence 1) [D8B608AF], AccurateRip returned [20CC5BE7]Track 6 cannot be verified as accurate (confidence 1) [157708D8], AccurateRip returned [E5730EE6]Track 7 cannot be verified as accurate (confidence 1) [8186A9AA], AccurateRip returned [7C85D670]Track 8 cannot be verified as accurate (confidence 1) [5278609F], AccurateRip returned [B18469ED]
No tracks could be verified as accurateYou may have a different pressing from the one(s) in the database
End of status report

1991-Aggravation

Лейбл: RoadRacer
Страна-производитель диска: США
Год издания диска: 1991
Номер по каталогу: RRD 9332
Treponem Pal - 1991 - Aggravation
01. Rest Is A War (04:26)
02. What Does It Mean? (04:59)
03. Love (05:14)
04. Out With No Flag (04:35)
05. Fugitive Soul (03:14)
06. Sweet Coma (04:11)
07. TV Matic (01:12)
08. Radioactivity (03:59)
09. You Got What You Deserve (06:33)
Продолжительность: 00:38:21

EAC Log

Exact Audio Copy V1.0 beta 1 from 15. November 2010
EAC extraction logfile from 25. February 2011, 22:32
Treponem Pal / Aggravation
Used drive : LITE-ON DVDRW LH-20A1L Adapter: 4 ID: 0
Read mode : SecureUtilize accurate stream : YesDefeat audio cache : YesMake use of C2 pointers : No
Read offset correction : 6Overread into Lead-In and Lead-Out : NoFill up missing offset samples with silence : YesDelete leading and trailing silent blocks : NoNull samples used in CRC calculations : YesUsed interface : Installed external ASPI interface
Used output format : Internal WAV RoutinesSample format : 44.100 Hz; 16 Bit; Stereo
TOC of the extracted CD
Track | Start | Length | Start sector | End sector --------------------------------------------------------- 1 | 0:00.00 | 4:28.67 | 0 | 20166 2 | 4:28.67 | 4:56.05 | 20167 | 42371 3 | 9:24.72 | 5:12.63 | 42372 | 65834 4 | 14:37.60 | 4:39.10 | 65835 | 86769 5 | 19:16.70 | 3:09.60 | 86770 | 101004 6 | 22:26.55 | 4:13.55 | 101005 | 120034 7 | 26:40.35 | 1:09.72 | 120035 | 125281 8 | 27:50.32 | 3:57.53 | 125282 | 143109 9 | 31:48.10 | 6:33.15 | 143110 | 172599
Range status and errors
Selected range
Filename Z:\data\mp3\Seeding Archive\Treponem Pal\1991-Aggravation\aggravation.wav
Peak level 99.9 % Extraction speed 1.2 X Range quality 100.0 % Test CRC 885D6A46 Copy CRC 885D6A46 Copy OK
No errors occurred
AccurateRip summary
Track 1 accurately ripped (confidence 2) [4406A717]Track 2 accurately ripped (confidence 2) [F7D5F75C]Track 3 accurately ripped (confidence 2) [357BD027]Track 4 accurately ripped (confidence 2) [295C6995]Track 5 accurately ripped (confidence 2) [F2A052B9]Track 6 accurately ripped (confidence 2) [BBBD5A3B]Track 7 accurately ripped (confidence 2) [E9B4FBA8]Track 8 cannot be verified as accurate (confidence 2) [DCF6CD90], AccurateRip returned [30BEBC7D]Track 9 accurately ripped (confidence 2) [7B3495BB]
8 track(s) accurately ripped 1 track(s) could not be verified as accurate
Some tracks could not be verified as accurate
End of status report

1993-Excess & Overdrive

Лейбл: The All Blacks BV
Страна-производитель диска: США
Год издания диска: 1993
Номер по каталогу: RD 9076 2
Treponem Pal - 1993 - Excess & Overdrive
01. Out Of Reach (04:27)
02. Pushing you too far (07:26)
03. Excess & overdrive (04:45)
04. For progress (04:15)
05. Crimson garden (07:27)
06. Stoned (04:34)
07. Nowhere land (07:07)
08. Blow me out (06:28)
09. Sometimes (04:23)
10. Full moon (03:40)
11. Excess (trance mix) (04:31)
Продолжительность: 00:59:02

EAC Log

Exact Audio Copy V1.0 beta 1 from 15. November 2010
EAC extraction logfile from 25. February 2011, 22:31
Treponem pal / Excess & Overdrive
Used drive : PLEXTOR CD-R PX-240A Adapter: 1 ID: 1
Read mode : SecureUtilize accurate stream : YesDefeat audio cache : YesMake use of C2 pointers : No
Read offset correction : 6Overread into Lead-In and Lead-Out : NoFill up missing offset samples with silence : YesDelete leading and trailing silent blocks : NoNull samples used in CRC calculations : YesUsed interface : Installed external ASPI interface
Used output format : Internal WAV RoutinesSample format : 44.100 Hz; 16 Bit; Stereo
TOC of the extracted CD
Track | Start | Length | Start sector | End sector --------------------------------------------------------- 1 | 0:00.00 | 4:28.65 | 0 | 20164 2 | 4:28.65 | 7:25.65 | 20165 | 53604 3 | 11:54.55 | 4:44.47 | 53605 | 74951 4 | 16:39.27 | 4:12.35 | 74952 | 93886 5 | 20:51.62 | 7:28.48 | 93887 | 127534 6 | 28:20.35 | 4:33.57 | 127535 | 148066 7 | 32:54.17 | 7:06.53 | 148067 | 180069 8 | 40:00.70 | 6:28.37 | 180070 | 209206 9 | 46:29.32 | 4:22.20 | 209207 | 228876 10 | 50:51.52 | 3:40.73 | 228877 | 245449 11 | 54:32.50 | 4:29.25 | 245450 | 265649
Range status and errors
Selected range
Filename Z:\data\mp3\Seeding Archive\Treponem Pal\1993-Excess & Overdrive\excess.wav
Peak level 100.0 % Extraction speed 0.6 X Range quality 100.0 % Test CRC 1F836DF9 Copy CRC 1F836DF9 Copy OK
No errors occurred
AccurateRip summary
Track 1 accurately ripped (confidence 2) [9F67AB47]Track 2 accurately ripped (confidence 2) [7B289C85]Track 3 accurately ripped (confidence 2) [5CA85336]Track 4 accurately ripped (confidence 2) [CBBFC9FC]Track 5 accurately ripped (confidence 2) [39D11E90]Track 6 accurately ripped (confidence 2) [C6FE4D07]Track 7 accurately ripped (confidence 2) [833BAC2A]Track 8 accurately ripped (confidence 2) [204378DC]Track 9 accurately ripped (confidence 2) [2E8840FD]Track 10 accurately ripped (confidence 2) [DBAE5579]Track 11 accurately ripped (confidence 2) [0BE086F5]
All tracks accurately ripped
End of status report

1993-Pushing You Too Far

Лейбл: The All Blacks BV
Страна-производитель диска: США
Год издания диска: 1993
Номер по каталогу: RR 2381 3
Treponem Pal - 1993 - Pushing You Too Far CDs
01. Pushing You Too Far (edit) (04:50)
02. Pushing You Too Far (tribal mix) (06:43)
03. Pushing You Too Far (com trance remix) (09:29)
Продолжительность: 00:21:02

EAC Log

Exact Audio Copy V1.0 beta 1 from 15. November 2010
EAC extraction logfile from 25. February 2011, 22:40
Treponem Pal / Pushing You Too Far CDs
Used drive : LITE-ON DVDRW LH-20A1L Adapter: 4 ID: 0
Read mode : SecureUtilize accurate stream : YesDefeat audio cache : YesMake use of C2 pointers : No
Read offset correction : 6Overread into Lead-In and Lead-Out : NoFill up missing offset samples with silence : YesDelete leading and trailing silent blocks : NoNull samples used in CRC calculations : YesUsed interface : Installed external ASPI interface
Used output format : Internal WAV RoutinesSample format : 44.100 Hz; 16 Bit; Stereo
TOC of the extracted CD
Track | Start | Length | Start sector | End sector --------------------------------------------------------- 1 | 0:00.00 | 4:50.35 | 0 | 21784 2 | 4:50.35 | 6:43.05 | 21785 | 52014 3 | 11:33.40 | 9:28.72 | 52015 | 94686
Range status and errors
Selected range
Filename Z:\data\mp3\Seeding Archive\Treponem Pal\1993-Pushing You Too Far\pushing.wav
Peak level 100.0 % Extraction speed 3.1 X Range quality 100.0 % Test CRC 77F42791 Copy CRC 77F42791 Copy OK
No errors occurred
AccurateRip summary
Track 1 accurately ripped (confidence 1) [21365650]Track 2 accurately ripped (confidence 1) [0E971724]Track 3 accurately ripped (confidence 1) [4F1D077D]
All tracks accurately ripped
End of status report

1993-Something To Make You Hate Me

Лейбл: Scorn Rec.
Страна-производитель диска: Франция
Год издания диска: 1993
Номер по каталогу: HATE 001
Treponem Pal - 1992 - Something To Make You Hate Me - Vera Groningen 29.3.92
01. The Black Box (05:57)
02. Rest Is A War (04:20)
03. Sometimes (03:46)
04. Fugitive Soul (03:18)
05. Embodiment Of Frustration (06:13)
06. Full Moon (03:40)
07. Radioactivity - Out Of Reach (09:00)
08. In - Out (06:46)
09. Too Many Humans (04:15)
10. The Black Box - Rest Is A War (08:59)
11. Sometimes (03:42)
12. Fugitive Soul (03:10)
13. Embodiment Of Frustration (06:03)
Продолжительность: 01:09:08

EAC Log

Exact Audio Copy V1.0 beta 4 from 7. December 2014
EAC extraction logfile from 2. March 2018, 19:49
Treponem Pal / Something To Make You Hate Me - Vera Groningen 29.3.92
Used drive : MATSHITADVD-RAM UJ8C0 Adapter: 1 ID: 0
Read mode : SecureUtilize accurate stream : YesDefeat audio cache : YesMake use of C2 pointers : No
Read offset correction : 103Overread into Lead-In and Lead-Out : NoFill up missing offset samples with silence : YesDelete leading and trailing silent blocks : NoNull samples used in CRC calculations : YesUsed interface : Installed external ASPI interface
Used output format : Internal WAV RoutinesSample format : 44.100 Hz; 16 Bit; Stereo
TOC of the extracted CD
Track | Start | Length | Start sector | End sector --------------------------------------------------------- 1 | 0:00.00 | 5:56.60 | 0 | 26759 2 | 5:56.60 | 4:19.45 | 26760 | 46229 3 | 10:16.30 | 3:45.57 | 46230 | 63161 4 | 14:02.12 | 3:18.33 | 63162 | 78044 5 | 17:20.45 | 6:13.10 | 78045 | 106029 6 | 23:33.55 | 3:39.65 | 106030 | 122519 7 | 27:13.45 | 8:59.62 | 122520 | 163006 8 | 36:13.32 | 6:47.73 | 163007 | 193604 9 | 43:01.30 | 4:13.20 | 193605 | 212599 10 | 47:14.50 | 8:58.42 | 212600 | 252991 11 | 56:13.17 | 3:42.18 | 252992 | 269659 12 | 59:55.35 | 3:09.40 | 269660 | 283874 13 | 63:05.00 | 6:03.05 | 283875 | 311104
Range status and errors
Selected range
Filename U:\data\hexonut\Seeding\Treponem Pal\1993-Something To Make You Hate Me\Something To Make You Hate Me.wav
Peak level 97.8 % Extraction speed 3.6 X Range quality 99.9 % Test CRC E1B0D1C3 Copy CRC E1B0D1C3 Copy OK
No errors occurred
AccurateRip summary
Track 1 not present in databaseTrack 2 not present in databaseTrack 3 not present in databaseTrack 4 not present in databaseTrack 5 not present in databaseTrack 6 not present in databaseTrack 7 not present in databaseTrack 8 not present in databaseTrack 9 not present in databaseTrack 10 not present in databaseTrack 11 not present in databaseTrack 12 not present in databaseTrack 13 not present in database
None of the tracks are present in the AccurateRip database
End of status report
==== Log checksum F9E1F7352490BDFA347DD953D2FA9AA3F42195F0847140E59E1683BB69AF7B7D ====

1995-L'opportuniste (with Reuno De Lofofora)

Лейбл: Chrysalis / EMI France
Страна-производитель диска: Франция / Голландия
Год издания диска: 1995
Номер по каталогу: 882 035 2 / PM 110
Treponem Pal et Reuno De Lofofora - 1995 - L'opportuniste
01. L'opportuniste (04:25)
02. L'opportuniste (classic mix) (04:25)
Продолжительность: 00:08:50

EAC Log

Exact Audio Copy V1.1 from 23. June 2015
EAC extraction logfile from 21. March 2017, 17:07
Treponem Pal et Reuno De Lofofora / L'opportuniste
Used drive : HL-DT-STBD-RE WH16NS40 Adapter: 6 ID: 0
Read mode : SecureUtilize accurate stream : YesDefeat audio cache : YesMake use of C2 pointers : No
Read offset correction : 6Overread into Lead-In and Lead-Out : NoFill up missing offset samples with silence : YesDelete leading and trailing silent blocks : NoNull samples used in CRC calculations : YesUsed interface : Installed external ASPI interface
Used output format : Internal WAV RoutinesSample format : 44.100 Hz; 16 Bit; Stereo
TOC of the extracted CD
Track | Start | Length | Start sector | End sector --------------------------------------------------------- 1 | 0:00.32 | 4:27.03 | 32 | 20059 2 | 4:27.35 | 4:22.60 | 20060 | 39769
Range status and errors
Selected range
Filename Z:\data\hexonut\Seeding\Treponem Pal\1995-L'opportuniste (with Reuno De Lofofora)\L'opportuniste.wav
Peak level 97.2 % Extraction speed 5.0 X Range quality 100.0 % Test CRC 25B17868 Copy CRC 25B17868 Copy OK
No errors occurred
AccurateRip summary
Track 1 not present in databaseTrack 2 not present in database
None of the tracks are present in the AccurateRip database
End of status report
==== Log checksum C6F9E5243BF4F8D43BDCD731E006F686765930A69128F1738457B41701411700 ====

1997-Funk Me

Лейбл: Mercury / PolyGram
Страна-производитель диска: Франция
Год издания диска: 1997
Номер по каталогу: 3614
Treponem Pal - 1997 - Funk Me
01. Funk Me (03:40)
Продолжительность: 00:03:40

EAC Log

Exact Audio Copy V1.1 from 23. June 2015
EAC extraction logfile from 21. February 2017, 17:14
Treponem Pal / Funk Me - Extrait de la Bande Originale du Film - Les 1000 Merveilles de l'Univers
Used drive : PLEXTOR CD-R PX-240A Adapter: 0 ID: 0
Read mode : SecureUtilize accurate stream : YesDefeat audio cache : YesMake use of C2 pointers : No
Read offset correction : 6Overread into Lead-In and Lead-Out : NoFill up missing offset samples with silence : YesDelete leading and trailing silent blocks : NoNull samples used in CRC calculations : YesUsed interface : Installed external ASPI interface
Used output format : Internal WAV RoutinesSample format : 44.100 Hz; 16 Bit; Stereo
TOC of the extracted CD
Track | Start | Length | Start sector | End sector --------------------------------------------------------- 1 | 0:00.00 | 3:40.02 | 0 | 16501
Range status and errors
Selected range
Filename Z:\data\hexonut\Seeding\Treponem Pal\1997-Funk Me\Funk Me.wav
Peak level 100.0 % Extraction speed 2.0 X Range quality 100.0 % Test CRC 383F7DBF Copy CRC 383F7DBF Copy OK
No errors occurred
AccurateRip summary
Track 1 cannot be verified as accurate (confidence 1) [CAFD6C5C], AccurateRip returned [A311D1DB] (AR v2)
No tracks could be verified as accurateYou may have a different pressing from the one(s) in the database
End of status report
==== Log checksum F9FC15FBB52D9F18F20FBC60F2DDEF9ECCB123E983E4B8D481460D880EF18765 ====

1997-Higher

Лейбл: Mercury
Страна-производитель диска: Франция
Год издания диска: 1997
Номер по каталогу: 314 534 526-2
Treponem Pal - Higher
01. Cyberfreak (05:06)
02. Renegade (03:17)
03. Unchained (04:08)
04. The Struggle (04:36)
05. Lose Control (03:31)
06. Panorama (04:47)
07. Free Tribe (05:06)
08. Funk Me (05:58)
09. Sick Train (03:59)
10. Belief (03:18)
11. Sweet Vibes (04:33)
12. Psycho Rising (03:30)
13. Funky Town (05:08)
Продолжительность: 00:56:57

EAC Log

Exact Audio Copy V1.0 beta 1 from 15. November 2010
EAC extraction logfile from 25. February 2011, 22:20
Treponem Pal / Higher
Used drive : LITE-ON DVDRW LH-20A1L Adapter: 4 ID: 0
Read mode : SecureUtilize accurate stream : YesDefeat audio cache : YesMake use of C2 pointers : No
Read offset correction : 6Overread into Lead-In and Lead-Out : NoFill up missing offset samples with silence : YesDelete leading and trailing silent blocks : NoNull samples used in CRC calculations : YesUsed interface : Installed external ASPI interface
Used output format : Internal WAV RoutinesSample format : 44.100 Hz; 16 Bit; Stereo
TOC of the extracted CD
Track | Start | Length | Start sector | End sector --------------------------------------------------------- 1 | 0:00.32 | 5:05.43 | 32 | 22949 2 | 5:06.00 | 3:17.22 | 22950 | 37746 3 | 8:23.22 | 4:07.48 | 37747 | 56319 4 | 12:30.70 | 4:36.10 | 56320 | 77029 5 | 17:07.05 | 3:30.40 | 77030 | 92819 6 | 20:37.45 | 4:47.30 | 92820 | 114374 7 | 25:25.00 | 5:06.00 | 114375 | 137324 8 | 30:31.00 | 5:58.02 | 137325 | 164176 9 | 36:29.02 | 3:59.18 | 164177 | 182119 10 | 40:28.20 | 3:19.25 | 182120 | 197069 11 | 43:47.45 | 4:31.60 | 197070 | 217454 12 | 48:19.30 | 3:30.10 | 217455 | 233214 13 | 51:49.40 | 5:07.70 | 233215 | 256309
Range status and errors
Selected range
Filename Z:\data\mp3\Seeding Archive\Treponem Pal\1997-Higher\higher.wav
Peak level 98.0 % Extraction speed 0.7 X Range quality 100.0 % Test CRC 9EFAC8A6 Copy CRC 9EFAC8A6 Copy OK
No errors occurred
AccurateRip summary
Track 1 accurately ripped (confidence 2) [5D74D430]Track 2 accurately ripped (confidence 2) [F20FD6D8]Track 3 accurately ripped (confidence 2) [FB9942A2]Track 4 accurately ripped (confidence 2) [74378034]Track 5 accurately ripped (confidence 2) [AAF450BF]Track 6 accurately ripped (confidence 2) [677B9694]Track 7 accurately ripped (confidence 2) [91540E0F]Track 8 accurately ripped (confidence 2) [594DA33D]Track 9 accurately ripped (confidence 2) [914BBDDE]Track 10 accurately ripped (confidence 2) [05ED6545]Track 11 accurately ripped (confidence 2) [D92B1AB7]Track 12 accurately ripped (confidence 2) [BEADE792]Track 13 accurately ripped (confidence 2) [C845915A]
All tracks accurately ripped
End of status report

1997-Renegade

Лейбл: Mercury
Страна-производитель диска: Франция
Год издания диска: 1997
Номер по каталогу: MECP 287
Treponem Pal - 1997 - Renegade
01. Renegade [Radio Edit] (03:17)
02. Renegade [KMFDM Remix] (04:24)
Продолжительность: 00:07:41

EAC Log

Exact Audio Copy V1.0 beta 1 from 15. November 2010
EAC extraction logfile from 25. February 2011, 22:50
Treponem Pal / Renegade
Used drive : LITE-ON DVDRW LH-20A1L Adapter: 4 ID: 0
Read mode : SecureUtilize accurate stream : YesDefeat audio cache : YesMake use of C2 pointers : No
Read offset correction : 6Overread into Lead-In and Lead-Out : NoFill up missing offset samples with silence : YesDelete leading and trailing silent blocks : NoNull samples used in CRC calculations : YesUsed interface : Installed external ASPI interface
Used output format : Internal WAV RoutinesSample format : 44.100 Hz; 16 Bit; Stereo
TOC of the extracted CD
Track | Start | Length | Start sector | End sector --------------------------------------------------------- 1 | 0:00.00 | 3:20.00 | 0 | 14999 2 | 3:20.00 | 4:21.30 | 15000 | 34604
Range status and errors
Selected range
Filename Z:\data\mp3\Seeding Archive\Treponem Pal\1997-Renegade\renegade.wav
Peak level 97.0 % Extraction speed 1.3 X Range quality 100.0 % Test CRC 35E4437F Copy CRC 35E4437F Copy OK
No errors occurred
AccurateRip summary
Track 1 accurately ripped (confidence 1) [5AFC74B1]Track 2 accurately ripped (confidence 1) [FE8322DC]
All tracks accurately ripped
End of status report

1998-Panorama Remixes

Лейбл: Mercury
Страна-производитель диска: Франция
Год издания диска: 1998
Номер по каталогу: 568 575-2
Treponem Pal - 1998 - Panorama Remixes
01. Panorama [Original Edit Version] (04:00)
02. Panorama [Techno mix by Pills] (03:56)
03. Panorama [Treponem Pal mix by Rasboras Inc. (1)] (05:09)
04. Panorama [Jungle mix by DreadZone] (08:05)
05. Panorama [Hip-Hop mix by Peppermint] (03:54)
06. Panorama [Dub mix by The Rootsman] (06:24)
07. Panorama [Treponem Pal mix by KRK] (04:06)
08. Panorama [Treponem Pal mix by Rasboras Inc. (2)] (02:48)
Продолжительность: 00:38:22

EAC Log

Exact Audio Copy V1.0 beta 1 from 15. November 2010
EAC extraction logfile from 25. February 2011, 22:03
Treponem Pal / Panorama Remixes
Used drive : LITE-ON DVDRW LH-20A1L Adapter: 4 ID: 0
Read mode : SecureUtilize accurate stream : YesDefeat audio cache : YesMake use of C2 pointers : No
Read offset correction : 6Overread into Lead-In and Lead-Out : NoFill up missing offset samples with silence : YesDelete leading and trailing silent blocks : NoNull samples used in CRC calculations : YesUsed interface : Installed external ASPI interface
Used output format : Internal WAV RoutinesSample format : 44.100 Hz; 16 Bit; Stereo
TOC of the extracted CD
Track | Start | Length | Start sector | End sector --------------------------------------------------------- 1 | 0:00.00 | 4:00.05 | 0 | 18004 2 | 4:00.05 | 3:56.22 | 18005 | 35726 3 | 7:56.27 | 5:09.00 | 35727 | 58901 4 | 13:05.27 | 8:04.43 | 58902 | 95244 5 | 21:09.70 | 3:53.50 | 95245 | 112769 6 | 25:03.45 | 6:23.52 | 112770 | 141546 7 | 31:27.22 | 4:06.35 | 141547 | 160031 8 | 35:33.57 | 2:48.05 | 160032 | 172636
Range status and errors
Selected range
Filename Z:\data\mp3\Seeding Archive\Treponem Pal\1998-Panorama Remixes\panorama.wav
Peak level 97.9 % Extraction speed 0.5 X Range quality 100.0 % Test CRC C4DA493E Copy CRC C4DA493E Copy OK
No errors occurred
AccurateRip summary
Track 1 accurately ripped (confidence 1) [3940394F]Track 2 accurately ripped (confidence 1) [C16499AA]Track 3 accurately ripped (confidence 1) [67173C2C]Track 4 accurately ripped (confidence 1) [0F85B211]Track 5 accurately ripped (confidence 1) [4810C71D]Track 6 accurately ripped (confidence 1) [E035D6F3]Track 7 accurately ripped (confidence 1) [C5FCEB9A]Track 8 accurately ripped (confidence 1) [A1CEEF58]
All tracks accurately ripped
End of status report

2007-Weird Machine

Лейбл: Listenable Records
Страна-производитель диска: Франция
Год издания диска: 2007
Номер по каталогу: POSH 101
Treponem Pal - 2008 - Weird machine
01. Dirty dance (04:29)
02. Planet crash (04:11)
03. Unclean (03:47)
04. Hardcore massive soldier (04:02)
05. Madbox (03:26)
06. Sonic life (05:50)
07. Freak machine (05:40)
08. Human attack (04:23)
09. Evil angel (03:10)
10. One more time (05:03)
11. Never give up (04:04)
12. Revolutionist (04:48)
13. Religion (04:58)
Продолжительность: 00:57:50

EAC Log

Exact Audio Copy V1.0 beta 1 from 15. November 2010
EAC extraction logfile from 25. February 2011, 22:47
Treponem Pal / Weird machine
Used drive : PLEXTOR CD-R PX-240A Adapter: 1 ID: 1
Read mode : SecureUtilize accurate stream : YesDefeat audio cache : YesMake use of C2 pointers : No
Read offset correction : 6Overread into Lead-In and Lead-Out : NoFill up missing offset samples with silence : YesDelete leading and trailing silent blocks : NoNull samples used in CRC calculations : YesUsed interface : Installed external ASPI interface
Used output format : Internal WAV RoutinesSample format : 44.100 Hz; 16 Bit; Stereo
TOC of the extracted CD
Track | Start | Length | Start sector | End sector --------------------------------------------------------- 1 | 0:00.00 | 4:28.42 | 0 | 20141 2 | 4:28.42 | 4:10.57 | 20142 | 38948 3 | 8:39.24 | 3:47.21 | 38949 | 55994 4 | 12:26.45 | 4:02.07 | 55995 | 74151 5 | 16:28.52 | 3:25.62 | 74152 | 89588 6 | 19:54.39 | 5:49.66 | 89589 | 115829 7 | 25:44.30 | 5:40.11 | 115830 | 141340 8 | 31:24.41 | 4:22.41 | 141341 | 161031 9 | 35:47.07 | 3:09.64 | 161032 | 175270 10 | 38:56.71 | 5:02.64 | 175271 | 197984 11 | 43:59.60 | 4:03.50 | 197985 | 216259 12 | 48:03.35 | 4:48.32 | 216260 | 237891 13 | 52:51.67 | 4:58.32 | 237892 | 260273
Range status and errors
Selected range
Filename Z:\data\mp3\Seeding Archive\Treponem Pal\2007-Weird Machine\weirdmachine.wav
Peak level 99.3 % Extraction speed 0.6 X Range quality 100.0 % Test CRC 1DA53172 Copy CRC 1DA53172 Copy OK
No errors occurred
AccurateRip summary
Track 1 accurately ripped (confidence 2) [48B13CBA]Track 2 accurately ripped (confidence 2) [0BEB7D60]Track 3 accurately ripped (confidence 2) [6BA4A746]Track 4 accurately ripped (confidence 2) [88AF2B1A]Track 5 accurately ripped (confidence 2) [3F907FDB]Track 6 accurately ripped (confidence 2) [655A7218]Track 7 accurately ripped (confidence 2) [EBED45B8]Track 8 accurately ripped (confidence 2) [89A2FE76]Track 9 accurately ripped (confidence 2) [F1870226]Track 10 accurately ripped (confidence 2) [81F55EF2]Track 11 accurately ripped (confidence 2) [D500C221]Track 12 accurately ripped (confidence 2) [793C3BC9]Track 13 accurately ripped (confidence 2) [C414A1C4]
All tracks accurately ripped
End of status report

2008-Furytales (Box set: 4 CD)

Лейбл: Metal Mind
Страна-производитель диска: Польша
Год издания диска: 2008
Номер по каталогу: MMP5CDBOX004
Дополнительная информация: Box set: 4 CD + 1 DVD

1989-Treponem Pal

Treponem Pal - Treponem Pal (Remaster)
01. Silico (03:50)
02. The Black Box (03:33)
03. Embodiement Of Frustration (05:25)
04. The Prettiest Star (02:29)
05. In-Out (05:57)
06. Too Many Humans (03:18)
07. Low Man (05:32)
08. Soft Mouth Vagina (03:32)
Продолжительность: 00:33:36

EAC Log

Exact Audio Copy V1.0 beta 1 from 15. November 2010
EAC extraction logfile from 26. February 2011, 10:56
Treponem Pal / Treponem Pal
Used drive : PLEXTOR CD-R PX-240A Adapter: 1 ID: 1
Read mode : SecureUtilize accurate stream : YesDefeat audio cache : YesMake use of C2 pointers : No
Read offset correction : 6Overread into Lead-In and Lead-Out : NoFill up missing offset samples with silence : YesDelete leading and trailing silent blocks : NoNull samples used in CRC calculations : YesUsed interface : Installed external ASPI interface
Used output format : Internal WAV RoutinesSample format : 44.100 Hz; 16 Bit; Stereo
TOC of the extracted CD
Track | Start | Length | Start sector | End sector --------------------------------------------------------- 1 | 0:00.00 | 3:49.70 | 0 | 17244 2 | 3:49.70 | 3:33.12 | 17245 | 33231 3 | 7:23.07 | 5:24.58 | 33232 | 57589 4 | 12:47.65 | 2:28.67 | 57590 | 68756 5 | 15:16.57 | 5:56.53 | 68757 | 95509 6 | 21:13.35 | 3:18.05 | 95510 | 110364 7 | 24:31.40 | 5:32.15 | 110365 | 135279 8 | 30:03.55 | 3:32.28 | 135280 | 151207
Range status and errors
Selected range
Filename Z:\data\mp3\Seeding Archive\Treponem Pal\2008-Furytales\1990-Treponem Pal\treponempalrem.wav
Peak level 99.8 % Extraction speed 0.8 X Range quality 100.0 % Test CRC 65FA299A Copy CRC 65FA299A Copy OK
No errors occurred
AccurateRip summary
Track 1 accurately ripped (confidence 2) [E2A47ED3]Track 2 accurately ripped (confidence 2) [F68D3395]Track 3 accurately ripped (confidence 2) [E00854BC]Track 4 accurately ripped (confidence 2) [3BBF2A8D]Track 5 accurately ripped (confidence 2) [350E7A2C]Track 6 accurately ripped (confidence 2) [1AD1030B]Track 7 accurately ripped (confidence 2) [B15A7E51]Track 8 accurately ripped (confidence 2) [2A60A15F]
All tracks accurately ripped
End of status report

1991-Aggravation

Treponem Pal - Aggravation (Remaster)
01. Rest Is A War (04:29)
02. What Does It Mean? (04:56)
03. Love (05:13)
04. Out With No Flag (04:39)
05. Fugitive Soul (03:10)
06. Sweet Coma (04:14)
07. TV Matic (01:10)
08. Radioactivity (03:58)
09. You Got What You Deserve (06:33)
Продолжительность: 00:38:21

EAC Log

Exact Audio Copy V1.0 beta 1 from 15. November 2010
EAC extraction logfile from 26. February 2011, 10:56
Treponem Pal / Aggravation
Used drive : LITE-ON DVDRW LH-20A1L Adapter: 4 ID: 0
Read mode : SecureUtilize accurate stream : YesDefeat audio cache : YesMake use of C2 pointers : No
Read offset correction : 6Overread into Lead-In and Lead-Out : NoFill up missing offset samples with silence : YesDelete leading and trailing silent blocks : NoNull samples used in CRC calculations : YesUsed interface : Installed external ASPI interface
Used output format : Internal WAV RoutinesSample format : 44.100 Hz; 16 Bit; Stereo
TOC of the extracted CD
Track | Start | Length | Start sector | End sector --------------------------------------------------------- 1 | 0:00.00 | 4:28.67 | 0 | 20166 2 | 4:28.67 | 4:56.05 | 20167 | 42371 3 | 9:24.72 | 5:12.63 | 42372 | 65834 4 | 14:37.60 | 4:39.10 | 65835 | 86769 5 | 19:16.70 | 3:09.60 | 86770 | 101004 6 | 22:26.55 | 4:13.55 | 101005 | 120034 7 | 26:40.35 | 1:09.72 | 120035 | 125281 8 | 27:50.32 | 3:57.53 | 125282 | 143109 9 | 31:48.10 | 6:33.15 | 143110 | 172599
Range status and errors
Selected range
Filename Z:\data\mp3\Seeding Archive\Treponem Pal\2008-Furytales\1991-Aggravation\aggravationrem.wav
Peak level 98.8 % Extraction speed 1.4 X Range quality 100.0 % Test CRC 5B71EFD9 Copy CRC 5B71EFD9 Copy OK
No errors occurred
AccurateRip summary
Track 1 accurately ripped (confidence 2) [D9834A84]Track 2 accurately ripped (confidence 2) [587C173E]Track 3 accurately ripped (confidence 2) [36AEA4AE]Track 4 accurately ripped (confidence 2) [156F01CB]Track 5 accurately ripped (confidence 2) [CA1BBC95]Track 6 accurately ripped (confidence 2) [396A1C41]Track 7 accurately ripped (confidence 2) [0AC56E0B]Track 8 accurately ripped (confidence 2) [30BEBC7D]Track 9 accurately ripped (confidence 2) [B21025E7]
All tracks accurately ripped
End of status report

1992-Live In Europe

Treponem Pal - Live in Europe
01. The Black Box (05:14)
02. Rest Is A War (04:20)
03. Sometimes (03:46)
04. Fugitive Soul (03:18)
05. Embodiement Of Frustration (06:13)
06. Full Moon (03:40)
07. Radioactivity (09:00)
08. In-Out (06:46)
09. Too Many Humans (04:14)
Продолжительность: 00:46:31

EAC Log

Exact Audio Copy V1.0 beta 1 from 15. November 2010
EAC extraction logfile from 26. February 2011, 13:45
Treponem Pal / Live in Europe
Used drive : PLEXTOR CD-R PX-240A Adapter: 1 ID: 1
Read mode : SecureUtilize accurate stream : YesDefeat audio cache : YesMake use of C2 pointers : No
Read offset correction : 6Overread into Lead-In and Lead-Out : NoFill up missing offset samples with silence : YesDelete leading and trailing silent blocks : NoNull samples used in CRC calculations : YesUsed interface : Installed external ASPI interface
Used output format : Internal WAV RoutinesSample format : 44.100 Hz; 16 Bit; Stereo
TOC of the extracted CD
Track | Start | Length | Start sector | End sector --------------------------------------------------------- 1 | 0:00.00 | 5:14.05 | 0 | 23554 2 | 5:14.05 | 4:19.44 | 23555 | 43023 3 | 9:33.49 | 3:45.56 | 43024 | 59954 4 | 13:19.30 | 3:18.32 | 59955 | 74836 5 | 16:37.62 | 6:13.09 | 74837 | 102820 6 | 22:50.71 | 3:39.65 | 102821 | 119310 7 | 26:30.61 | 8:59.61 | 119311 | 159796 8 | 35:30.47 | 6:46.17 | 159797 | 190263 9 | 42:16.64 | 4:13.57 | 190264 | 209295
Range status and errors
Selected range
Filename Z:\data\mp3\Seeding Archive\Treponem Pal\2008-Furytales\1992-Live In Europe\liveineurope.wav
Peak level 98.8 % Extraction speed 0.8 X Range quality 100.0 % Test CRC 0593F6E2 Copy CRC 0593F6E2 Copy OK
No errors occurred
AccurateRip summary
Track 1 accurately ripped (confidence 1) [5EB80BDF]Track 2 accurately ripped (confidence 1) [35E9758F]Track 3 accurately ripped (confidence 1) [8153A697]Track 4 accurately ripped (confidence 1) [F21956B4]Track 5 accurately ripped (confidence 1) [858B4484]Track 6 accurately ripped (confidence 1) [7BE5BBDB]Track 7 accurately ripped (confidence 1) [E3581347]Track 8 accurately ripped (confidence 1) [75A61A29]Track 9 accurately ripped (confidence 1) [8CD0B44C]
All tracks accurately ripped
End of status report

1993-Excess & Overdrive

Treponem Pal - Excess & Overdrive (Remaster)
01. Out Of Reach (04:29)
02. Pushing You To Far (07:26)
03. Excess & Overdrive (04:45)
04. For Progress (04:12)
05. Crimson Garden (07:29)
06. Stoned (04:34)
07. Nowhere Land (07:07)
08. Blow Me Out (06:28)
09. Sometimes (04:22)
10. Full Moon (03:41)
11. Excess (Trance Mix) (04:29)
12. Pushing You To Far (Tribal Mix) (06:40)
13. Pushing You (Com Trance Remix) (09:26)
Продолжительность: 01:15:08

EAC Log

Exact Audio Copy V1.0 beta 1 from 15. November 2010
EAC extraction logfile from 26. February 2011, 13:45
Treponem Pal / Excess & Overdrive
Used drive : LITE-ON DVDRW LH-20A1L Adapter: 4 ID: 0
Read mode : SecureUtilize accurate stream : YesDefeat audio cache : YesMake use of C2 pointers : No
Read offset correction : 6Overread into Lead-In and Lead-Out : NoFill up missing offset samples with silence : YesDelete leading and trailing silent blocks : NoNull samples used in CRC calculations : YesUsed interface : Installed external ASPI interface
Used output format : Internal WAV RoutinesSample format : 44.100 Hz; 16 Bit; Stereo
TOC of the extracted CD
Track | Start | Length | Start sector | End sector --------------------------------------------------------- 1 | 0:00.00 | 4:28.65 | 0 | 20164 2 | 4:28.65 | 7:25.65 | 20165 | 53604 3 | 11:54.55 | 4:44.47 | 53605 | 74951 4 | 16:39.27 | 4:12.35 | 74952 | 93886 5 | 20:51.62 | 7:28.48 | 93887 | 127534 6 | 28:20.35 | 4:33.57 | 127535 | 148066 7 | 32:54.17 | 7:06.53 | 148067 | 180069 8 | 40:00.70 | 6:28.37 | 180070 | 209206 9 | 46:29.32 | 4:22.20 | 209207 | 228876 10 | 50:51.52 | 3:40.73 | 228877 | 245449 11 | 54:32.50 | 4:29.25 | 245450 | 265649 12 | 59:02.00 | 6:40.05 | 265650 | 295654 13 | 65:42.05 | 9:26.01 | 295655 | 338105
Range status and errors
Selected range
Filename Z:\data\mp3\Seeding Archive\Treponem Pal\2008-Furytales\1993-Excess & Overdrive\excessrem.wav
Peak level 98.8 % Extraction speed 1.0 X Range quality 99.9 % Test CRC 8309D3EF Copy CRC 8309D3EF Copy OK
No errors occurred
AccurateRip summary
Track 1 accurately ripped (confidence 2) [7590F1BD]Track 2 accurately ripped (confidence 2) [CFC1134D]Track 3 accurately ripped (confidence 2) [476171CB]Track 4 accurately ripped (confidence 2) [66D78841]Track 5 accurately ripped (confidence 2) [88EB44EC]Track 6 accurately ripped (confidence 2) [163B7DFA]Track 7 accurately ripped (confidence 2) [3BFCD5F1]Track 8 accurately ripped (confidence 2) [3F7CFD99]Track 9 accurately ripped (confidence 2) [95184A63]Track 10 accurately ripped (confidence 2) [D51BBFFB]Track 11 accurately ripped (confidence 2) [4C667850]Track 12 accurately ripped (confidence 2) [FBCA7EE8]Track 13 accurately ripped (confidence 2) [8F26C3B7]
All tracks accurately ripped
End of status report

2012-Survival Sounds

Лейбл: Higher / Juste Une Trace
Страна-производитель диска: Франция
Год издания диска: 2012
Номер по каталогу: AMOC284258064535
Treponem Pal - 2012 - Survival Sounds
01. Survival sounds (05:23)
02. One way trip down (03:37)
03. Paranoia cinema (04:23)
04. Runaway far away (05:05)
05. Hard on (04:14)
06. Subliminal life (05:00)
07. Riot dance (05:06)
08. Let's take a ride (04:49)
09. Evil is calling (03:50)
10. Lowman blues (03:46)
11. Drunk waltz (03:42)
12. Love the life we live (04:46)
Продолжительность: 00:53:40

EAC Log

Exact Audio Copy V1.0 beta 3 from 29. August 2011
EAC extraction logfile from 1. November 2012, 21:48
Treponem Pal / Survival Sounds
Used drive : PLEXTOR CD-R PX-240A Adapter: 1 ID: 0
Read mode : SecureUtilize accurate stream : YesDefeat audio cache : YesMake use of C2 pointers : No
Read offset correction : 6Overread into Lead-In and Lead-Out : NoFill up missing offset samples with silence : YesDelete leading and trailing silent blocks : NoNull samples used in CRC calculations : YesUsed interface : Installed external ASPI interface
Used output format : Internal WAV RoutinesSample format : 44.100 Hz; 16 Bit; Stereo
TOC of the extracted CD
Track | Start | Length | Start sector | End sector --------------------------------------------------------- 1 | 0:00.00 | 5:23.02 | 0 | 24226 2 | 5:23.02 | 3:36.49 | 24227 | 40475 3 | 8:59.51 | 4:23.36 | 40476 | 60236 4 | 13:23.12 | 5:04.47 | 60237 | 83083 5 | 18:27.59 | 4:14.04 | 83084 | 102137 6 | 22:41.63 | 4:59.61 | 102138 | 124623 7 | 27:41.49 | 5:06.18 | 124624 | 147591 8 | 32:47.67 | 4:48.39 | 147592 | 169230 9 | 37:36.31 | 3:50.33 | 169231 | 186513 10 | 41:26.64 | 3:46.20 | 186514 | 203483 11 | 45:13.09 | 3:41.56 | 203484 | 220114 12 | 48:54.65 | 4:45.46 | 220115 | 241535
Range status and errors
Selected range
Filename P:\Seeding Archive\Treponem Pal\2012-Survival Sounds\Survival Sounds.wav
Peak level 99.8 % Extraction speed 2.4 X Range quality 100.0 % Test CRC 48695D43 Copy CRC 48695D43 Copy OK
No errors occurred
AccurateRip summary
Track 1 not present in databaseTrack 2 not present in databaseTrack 3 not present in databaseTrack 4 not present in databaseTrack 5 not present in databaseTrack 6 not present in databaseTrack 7 not present in databaseTrack 8 not present in databaseTrack 9 not present in databaseTrack 10 not present in databaseTrack 11 not present in databaseTrack 12 not present in database
None of the tracks are present in the AccurateRip database
End of status report
==== Log checksum DB6C5DE20850826FF4B6AF728C05339A4CEECCBA7A38FACB6BCF677FA1501519 ====

2013-Evil Music For Evil People

Лейбл: Higher / Juste Une Trace
Страна-производитель диска: Франция
Год издания диска: 2012
Номер по каталогу: AMOC173147951424
Treponem Pal - 2013 - Evil Music For Evil People
01. Survival Dub (Rmx by Dr Das from Asian Dub Foundation) (05:51)
02. Punish Waltz (Rmx by Punish Yourself vs. Sonic Area) (04:35)
03. Riot Nasty Dance (Rmx by Dee Nasty) (06:17)
04. Evil Is Us (Rmx / Collaboration Lofonem Pal) (03:57)
05. Paranoia Higha (Rmx by Rasboras Inc.) (04:34)
06. Runaway Unclean (Rmx by Silent Frequencies) (04:34)
07. Blue Man Blues (Rmx by Beat In Zen) (04:03)
08. Riot Jiji Dance (Rmx by Jipouille de Saint Loup) (03:43)
09. Survival Down (Rmx by La Machine) (03:58)
10. Let's Take It Higha (Rmx by Quetzalcoatl) (04:54)
11. Riot Oriental Dance (Rmx by Fedayi Pacha) (04:12)
12. Hard On & Go (Rmx by Beat In Zen) (04:28)
13. Subliminal Smoke (Rmx by Mimetic) (04:24)
14. Survival Man (Rmx by Silent Frequencies) (04:18)
15. Riot Weird Dance (Rmx by Suicide Inside) (04:46)
16. Runaway Far West (Rmx by La Machine) (04:06)
Продолжительность: 01:12:41

EAC Log

Exact Audio Copy V1.0 beta 3 from 29. August 2011
EAC extraction logfile from 28. February 2014, 12:17
Treponem Pal / Evil Music For Evil People
Used drive : PLEXTOR CD-R PX-240A Adapter: 0 ID: 0
Read mode : SecureUtilize accurate stream : YesDefeat audio cache : YesMake use of C2 pointers : No
Read offset correction : 6Overread into Lead-In and Lead-Out : NoFill up missing offset samples with silence : YesDelete leading and trailing silent blocks : NoNull samples used in CRC calculations : YesUsed interface : Installed external ASPI interface
Used output format : Internal WAV RoutinesSample format : 44.100 Hz; 16 Bit; Stereo
TOC of the extracted CD
Track | Start | Length | Start sector | End sector --------------------------------------------------------- 1 | 0:00.00 | 5:51.09 | 0 | 26333 2 | 5:51.09 | 4:35.17 | 26334 | 46975 3 | 10:26.26 | 6:16.38 | 46976 | 75213 4 | 16:42.64 | 3:57.11 | 75214 | 92999 5 | 20:40.00 | 4:34.09 | 93000 | 113558 6 | 25:14.09 | 4:34.31 | 113559 | 134139 7 | 29:48.40 | 4:02.66 | 134140 | 152355 8 | 33:51.31 | 3:43.20 | 152356 | 169100 9 | 37:34.51 | 3:58.31 | 169101 | 186981 10 | 41:33.07 | 4:54.02 | 186982 | 209033 11 | 46:27.09 | 4:11.43 | 209034 | 227901 12 | 50:38.52 | 4:27.61 | 227902 | 247987 13 | 55:06.38 | 4:24.32 | 247988 | 267819 14 | 59:30.70 | 4:18.11 | 267820 | 287180 15 | 63:49.06 | 4:46.15 | 287181 | 308645 16 | 68:35.21 | 4:05.64 | 308646 | 327084
Range status and errors
Selected range
Filename Z:\data\hexonut\Seeding\Treponem Pal\2013-Evil Music For Evil People\Evil Music For Evil People.wav
Peak level 99.9 % Extraction speed 9.6 X Range quality 99.9 % Test CRC 36D60B10 Copy CRC 36D60B10 Copy OK
No errors occurred
AccurateRip summary
Track 1 not present in databaseTrack 2 not present in databaseTrack 3 not present in databaseTrack 4 not present in databaseTrack 5 not present in databaseTrack 6 not present in databaseTrack 7 not present in databaseTrack 8 not present in databaseTrack 9 not present in databaseTrack 10 not present in databaseTrack 11 not present in databaseTrack 12 not present in databaseTrack 13 not present in databaseTrack 14 not present in databaseTrack 15 not present in databaseTrack 16 not present in database
None of the tracks are present in the AccurateRip database
End of status report
==== Log checksum B50CA8BA6805B2D3AD92CDA8A9F40B76D2066E688145782A8C8866067465CB63 ====


[islamvillage.com]_t_1587004.torrent
Торрент: Зарегистрирован ·  [ 2019-01-06 19:01 ] ·  6b81c5fcf84863e4b11bc056e305807968d91d62

420 KB

Статус: проверено
Скачан: 0 раз
Размер: 5.04 GB
Оценка: 
(Голосов: 0)
Сказали спасибо: 0  Спасибо
Похожие темы
[Профиль]    [ЛС]
Показать сообщения:    
Ответить на тему

Текущее время: Сегодня 02:57

Часовой пояс: GMT + 7



Вы не можете начинать темы
Вы не можете отвечать на сообщения
Вы не можете редактировать свои сообщения
Вы не можете удалять свои сообщения
Вы не можете голосовать в опросах
Вы не можете прикреплять файлы к сообщениям
Вы можете скачивать файлы


The Magic Chef of Ice and Fire | The Replacement | Foxtrot (2017)