(Vocal Jazz/Swing) [CD] Caro Emerald - Deleted Scenes From The Cutting Room Floor (Deluxe Edition) - 2011, FLAC (image+.cue), lossless

Ответить на тему
Статистика раздачи [Обновить пиров]
Размер:  401 MB   |    Зарегистрирован:  15 дней   |    Скачан:  0 раз

Полного источника не было: Никогда

 
   
 
 
 
Автор Сообщение

islamvillage.com

Создавать темы 07-Янв-2019 05:46

[Цитировать]

Caro Emerald / Deleted Scenes From The Cutting Room Floor (Deluxe Edition)
Жанр: Vocal Jazz/Swing
Носитель: CD
Страна-производитель диска (релиза): Германия
Год издания: 2011
Издатель (лейбл): Universal Music & Grandmono
Номер по каталогу: 00602527720012
Страна исполнителя (группы): Нидерланды
Аудиокодек: FLAC (*.flac)
Тип рипа: image+.cue
Битрейт аудио: lossless
Продолжительность: 01:01:39
Источник (релизер): рип pishin
Наличие сканов в содержимом раздачи: да
Треклист:
CD: Caro Emerald - Deleted Scenes From The Cutting Room Floor (Deluxe Edition)
01. That Man [0:03:50.52]
02. Just One Dance [0:04:00.64]
03. Riviera Life [0:03:28.47]
04. Back It Up [0:03:52.61]
05. The Other Woman [0:05:33.17]
06. Absolutely Me [0:02:45.52]
07. You Don't Love Me [0:03:53.63]
08. Dr. Wanna Do [0:03:01.73]
09. Stuck [0:04:33.01]
10. I Know That He's Mine [0:04:17.12]
11. A Night Like This [0:03:45.70]
12. The Lipstick On His Collar Doesn't Seem To Match Mine [0:03:41.38]
13. A Night Like This (Dorian White Remix) [0:05:11.17]
14. A Night Like This (Art Alec Remix) [0:06:07.65]
15. Back It Up (Madcon Radio Edit) [0:03:34.68]

Лог создания рипа

Exact Audio Copy V1.3 from 2. September 2016
Отчёт EAC об извлечении, выполненном 4. января 2019, 16:22
Caro Emerald / Deleted Scenes From The Cutting Room Floor (Deluxe Edition)
Дисковод: PLEXTOR DVDR PX-755A Adapter: 1 ID: 0
Режим чтения : ДостоверностьИспользование точного потока : ДаОтключение кэша аудио : ДаИспользование указателей C2 : Нет
Коррекция смещения при чтении : 30Способность читать области Lead-in и Lead-out : НетЗаполнение пропущенных сэмплов тишиной : ДаУдаление блоков с тишиной в начале и конце : НетПри вычислениях CRC использовались нулевые сэмплы : ДаИнтерфейс : Встроенный Win32-интерфейс для Win NT/2000
Выходной формат : Пользовательский кодировщикВыбранный битрейт : 1024 kBit/sКачество : ВысокийДобавление ID3-тега : НетУтилита сжатия : C:\Program Files (x86)\Exact Audio Copy\FLAC\FLAC.EXEДополнительные параметры : -6 -V -T "ARTIST=%artist%" -T "TITLE=%title%" -T "ALBUM=%albumtitle%" -T "DATE=%year%" -T "TRACKNUMBER=%tracknr%" -T "GENRE=%genre%" -T "COMMENT=%comment%" -T "BAND=%albuminterpret%" -T "ALBUMARTIST=%albuminterpret%" -T "COMPOSER=%composer%" %haslyrics%--tag-from-file=LYRICS="%lyricsfile%"%haslyrics% -T "DISCNUMBER=%cdnumber%" -T "TOTALDISCS=%totalcds%" -T "TOTALTRACKS=%numtracks%" %hascover%--picture="%coverfile%"%hascover% %source% -o %dest%
TOC извлечённого CD
Трек | Старт | Длительность | Начальный сектор | Конечный сектор --------------------------------------------------------------------- 1 | 0:00.00 | 3:50.52 | 0 | 17301 2 | 3:50.52 | 4:00.64 | 17302 | 35365 3 | 7:51.41 | 3:28.47 | 35366 | 51012 4 | 11:20.13 | 3:52.61 | 51013 | 68473 5 | 15:12.74 | 5:33.17 | 68474 | 93465 6 | 20:46.16 | 2:45.52 | 93466 | 105892 7 | 23:31.68 | 3:53.63 | 105893 | 123430 8 | 27:25.56 | 3:01.73 | 123431 | 137078 9 | 30:27.54 | 4:33.01 | 137079 | 157554 10 | 35:00.55 | 4:17.12 | 157555 | 176841 11 | 39:17.67 | 3:45.70 | 176842 | 193786 12 | 43:03.62 | 3:41.38 | 193787 | 210399 13 | 46:45.25 | 5:11.17 | 210400 | 233741 14 | 51:56.42 | 6:07.65 | 233742 | 261331 15 | 58:04.32 | 3:34.68 | 261332 | 277449
Характеристики диапазона извлечения и сообщения об ошибках
Выбранный диапазон
Имя файла E:\РАЗДАЧА\Caro Emerald - DeletedScenes From The Cutting Room Floor (+Remix)\Caro Emerald - Deleted Scenes From The Cutting Room Floor (Deluxe Edition).wav
Пиковый уровень 98.8 % Скорость извлечения 8.2 X Качество диапазона 100.0 % CRC теста 72A8B536 CRC копии 72A8B536 Копирование... OK
Ошибок не произошло
AccurateRip: сводка
Трек 1 : извлечено точно (доверие 20) [460B549D] (AR v2)Трек 2 : извлечено точно (доверие 22) [EABE9661] (AR v2)Трек 3 : извлечено точно (доверие 22) [D468EF01] (AR v2)Трек 4 : извлечено точно (доверие 22) [F05152BF] (AR v2)Трек 5 : извлечено точно (доверие 22) [B8004665] (AR v2)Трек 6 : извлечено точно (доверие 22) [C0DB4092] (AR v2)Трек 7 : извлечено точно (доверие 22) [20DE1D25] (AR v2)Трек 8 : извлечено точно (доверие 22) [DC447FCF] (AR v2)Трек 9 : извлечено точно (доверие 22) [E8FAFEAB] (AR v2)Трек 10 : извлечено точно (доверие 22) [D4F4E404] (AR v2)Трек 11 : извлечено точно (доверие 22) [A412A2A9] (AR v2)Трек 12 : извлечено точно (доверие 21) [9D196C99] (AR v2)Трек 13 : извлечено точно (доверие 21) [67CD0730] (AR v2)Трек 14 : извлечено точно (доверие 21) [7FD5EC47] (AR v2)Трек 15 : извлечено точно (доверие 21) [DE8AEDEF] (AR v2)
Все треки извлечены точно
Конец отчёта
==== Контрольная сумма отчёта C3DB12D03E0881B26C8E873FD8883A55AEFD358CEF1F8FC8C72F3203E56E7C58 ====


[islamvillage.com]_t_5670208.torrent
Торрент: Зарегистрирован ·  [ 2019-01-07 05:46 ] ·  069c053e6e0ed78a8bf9b62a0fa92771b755de6d

17 KB

Статус: проверено
Скачан: 0 раз
Размер: 401 MB
Оценка: 
(Голосов: 0)
Сказали спасибо: 0  Спасибо
Похожие темы
[Профиль]    [ЛС]
Показать сообщения:    
Ответить на тему

Текущее время: Сегодня 22:03

Часовой пояс: GMT + 7



Вы не можете начинать темы
Вы не можете отвечать на сообщения
Вы не можете редактировать свои сообщения
Вы не можете удалять свои сообщения
Вы не можете голосовать в опросах
Вы не можете прикреплять файлы к сообщениям
Вы можете скачивать файлы


└ Musikinstrumente | Turfmaster Gartenanhänger Geräteanhänger a. galvanisiertem Stahl Nutzlast 450 kg | Pest Control