(Techno, Abstract, Electro, Experimental) [CD \\ WEB] Mr. Oizo - Collection (21 releases) - 1997-2016, FLAC (tracks \\ tracks+.cue), lossless

Ответить на тему
Статистика раздачи [Обновить пиров]
Размер:  4.07 GB   |    Зарегистрирован:  11 дней   |    Скачан:  0 раз

Полного источника не было: Никогда

 
   
 
 
 
Автор Сообщение

islamvillage.com

Создавать темы 07-Янв-2019 12:33

[Цитировать]

Mr. Oizo
-Жанр: Techno, Abstract, Electro, Experimental
Год выхода диска: 1997-2016
Аудио кодек: FLAC
Тип рипа: tracks \ tracks+.cue
Битрейт аудио: lossless
Продолжительность: 10:09:58
Источник: свои рипы \ red \ what.cd
14 12 2018: Analog Worms Attack заменён на собственный рип со сканами
- -Albums & Soundtracks

1999 - Analog Worms Attack [F113PROMOCD]

Продолжительность: 55:50
01. Mr. Oizo - Bad Start [1:46]
02. Mr. Oizo - Monophonic Shit [3:55]
03. Mr. Oizo - No Day Massacre [4:18]
04. Mr. Oizo - Smoking Tape [1:33]
05. Mr. Oizo - Last Night A Dj Killed My Dog [4:28]
06. Mr. Oizo - The Salad [3:05]
07. Mr. Oizo - Quick Relaxing [1:24]
08. Mr. Oizo - Bobby Can't Dance [2:48]
09. Mr. Oizo - Analog Worms Attack [4:54]
10. Mr. Oizo - One Minute Shakin [1:16]
11. Mr. Oizo - Inside The Kidney Machine [4:52]
12. Mr. Oizo - Miaaaw [4:24]
13. Mr. Oizo - Flat 55 [2:23]
14. Mr. Oizo - Feadz On [0:59]
15. Mr. Oizo - Analog Worms Sequel [13:44]

Log EAC

Exact Audio Copy V1.3 from 2. September 2016
EAC extraction logfile from 12. June 2017, 0:11
Mr. Oizo / Analog Worms Attack
Used drive : PLEXTOR CD-R PX-230A Adapter: 1 ID: 1
Read mode : SecureUtilize accurate stream : YesDefeat audio cache : YesMake use of C2 pointers : No
Read offset correction : 738Overread into Lead-In and Lead-Out : NoFill up missing offset samples with silence : YesDelete leading and trailing silent blocks : NoNull samples used in CRC calculations : YesUsed interface : Native Win32 interface for Win NT & 2000Gap handling : Appended to previous track
Used output format : User Defined EncoderSelected bitrate : 1024 kBit/sQuality : HighAdd ID3 tag : NoCommand line compressor : C:\Program Files (x86)\Exact Audio Copy\Flac\flac.exeAdditional command line options : -8 -V -T "ARTIST=%artist%" -T "TITLE=%title%" -T "ALBUM=%albumtitle%" -T "DATE=%year%" -T "TRACKNUMBER=%tracknr1%" -T "GENRE=%genre%" -T "PERFORMER=%albuminterpret%" -T "COMPOSER=%composer%" %haslyrics%--tag-from-file=LYRICS="%lyricsfile%"%haslyrics% -T "ALBUMARTIST=%albumartist%" -T "DISCNUMBER=%cdnumber%" -T "COMMENT=%comment%" %source% -o %dest%
TOC of the extracted CD
Track | Start | Length | Start sector | End sector --------------------------------------------------------- 1 | 0:00.00 | 1:45.67 | 0 | 7941 2 | 1:45.67 | 3:54.63 | 7942 | 25554 3 | 5:40.55 | 4:18.22 | 25555 | 44926 4 | 9:59.02 | 1:33.25 | 44927 | 51926 5 | 11:32.27 | 4:27.68 | 51927 | 72019 6 | 16:00.20 | 3:04.57 | 72020 | 85876 7 | 19:05.02 | 1:24.15 | 85877 | 92191 8 | 20:29.17 | 2:48.35 | 92192 | 104826 9 | 23:17.52 | 4:53.45 | 104827 | 126846 10 | 28:11.22 | 1:16.20 | 126847 | 132566 11 | 29:27.42 | 4:52.30 | 132567 | 154496 12 | 34:19.72 | 4:23.53 | 154497 | 174274 13 | 38:43.50 | 2:22.52 | 174275 | 184976 14 | 41:06.27 | 0:59.08 | 184977 | 189409 15 | 42:05.35 | 13:44.30 | 189410 | 251239
Track 1
Filename C:\EAC Rips\Mr. Oizo - Analog Worms Attack (1999) [FLAC]\01 Bad Start.wav
Pre-gap length 0:00:02.00
Peak level 100.0 % Extraction speed 1.9 X Track quality 99.8 % Test CRC 641E4D98 Copy CRC 641E4D98 Track not present in AccurateRip database Copy OK
Track 2
Filename C:\EAC Rips\Mr. Oizo - Analog Worms Attack (1999) [FLAC]\02 Monophonic Shit.wav
Peak level 100.0 % Extraction speed 2.8 X Track quality 100.0 % Test CRC 390C2B05 Copy CRC 390C2B05 Track not present in AccurateRip database Copy OK
Track 3
Filename C:\EAC Rips\Mr. Oizo - Analog Worms Attack (1999) [FLAC]\03 No Day Massacre.wav
Peak level 100.0 % Extraction speed 2.5 X Track quality 99.9 % Test CRC CB44E96A Copy CRC CB44E96A Track not present in AccurateRip database Copy OK
Track 4
Filename C:\EAC Rips\Mr. Oizo - Analog Worms Attack (1999) [FLAC]\04 Smoking Tape.wav
Peak level 99.7 % Extraction speed 2.3 X Track quality 100.0 % Test CRC 85886E62 Copy CRC 85886E62 Track not present in AccurateRip database Copy OK
Track 5
Filename C:\EAC Rips\Mr. Oizo - Analog Worms Attack (1999) [FLAC]\05 Last Night a DJ Killed My Dog.wav
Pre-gap length 0:00:01.46
Peak level 100.0 % Extraction speed 2.6 X Track quality 99.9 % Test CRC 229DD8DB Copy CRC 229DD8DB Track not present in AccurateRip database Copy OK
Track 6
Filename C:\EAC Rips\Mr. Oizo - Analog Worms Attack (1999) [FLAC]\06 The Salad.wav
Peak level 100.0 % Extraction speed 2.7 X Track quality 100.0 % Test CRC 2EBBCE69 Copy CRC 2EBBCE69 Track not present in AccurateRip database Copy OK
Track 7
Filename C:\EAC Rips\Mr. Oizo - Analog Worms Attack (1999) [FLAC]\07 Quick Relaxing.wav
Peak level 100.0 % Extraction speed 2.3 X Track quality 100.0 % Test CRC 05EF659A Copy CRC 05EF659A Track not present in AccurateRip database Copy OK
Track 8
Filename C:\EAC Rips\Mr. Oizo - Analog Worms Attack (1999) [FLAC]\08 Bobby Can't Dance.wav
Peak level 100.0 % Extraction speed 2.6 X Track quality 100.0 % Test CRC 96466506 Copy CRC 96466506 Track not present in AccurateRip database Copy OK
Track 9
Filename C:\EAC Rips\Mr. Oizo - Analog Worms Attack (1999) [FLAC]\09 Analog Worms Attack.wav
Peak level 100.0 % Extraction speed 2.8 X Track quality 100.0 % Test CRC FA0ECB93 Copy CRC FA0ECB93 Track not present in AccurateRip database Copy OK
Track 10
Filename C:\EAC Rips\Mr. Oizo - Analog Worms Attack (1999) [FLAC]\10 One Minute Shakin.wav
Peak level 100.0 % Extraction speed 2.2 X Track quality 100.0 % Test CRC 9246D325 Copy CRC 9246D325 Track not present in AccurateRip database Copy OK
Track 11
Filename C:\EAC Rips\Mr. Oizo - Analog Worms Attack (1999) [FLAC]\11 Inside the Kidney Machine.wav
Peak level 100.0 % Extraction speed 2.8 X Track quality 100.0 % Test CRC 6C774F18 Copy CRC 6C774F18 Track not present in AccurateRip database Copy OK
Track 12
Filename C:\EAC Rips\Mr. Oizo - Analog Worms Attack (1999) [FLAC]\12 Miaaaw.wav
Peak level 100.0 % Extraction speed 2.8 X Track quality 100.0 % Test CRC 5F693E61 Copy CRC 5F693E61 Track not present in AccurateRip database Copy OK
Track 13
Filename C:\EAC Rips\Mr. Oizo - Analog Worms Attack (1999) [FLAC]\13 Flat 55.wav
Peak level 100.0 % Extraction speed 2.5 X Track quality 100.0 % Test CRC 11F11DBB Copy CRC 11F11DBB Track not present in AccurateRip database Copy OK
Track 14
Filename C:\EAC Rips\Mr. Oizo - Analog Worms Attack (1999) [FLAC]\14 Feadz On.wav
Peak level 100.0 % Extraction speed 1.5 X Track quality 99.8 % Test CRC 15BE4A76 Copy CRC 15BE4A76 Track not present in AccurateRip database Copy OK
Track 15
Filename C:\EAC Rips\Mr. Oizo - Analog Worms Attack (1999) [FLAC]\15 Analog Worms Sequel.wav
Peak level 100.0 % Extraction speed 3.0 X Track quality 100.0 % Test CRC 6E66CCD1 Copy CRC 6E66CCD1 Track not present in AccurateRip database Copy OK
None of the tracks are present in the AccurateRip database
No errors occurred
End of status report
---- CUETools DB Plugin V2.1.6
[CTDB TOCID: k2EuYIPmzqW8sBuC4NvmyYkqJMo-] foundSubmit result: k2EuYIPmzqW8sBuC4NvmyYkqJMo- has been confirmedTrack | CTDB Status 1 | (5/5) Accurately ripped 2 | (5/5) Accurately ripped 3 | (5/5) Accurately ripped 4 | (5/5) Accurately ripped 5 | (5/5) Accurately ripped 6 | (5/5) Accurately ripped 7 | (5/5) Accurately ripped 8 | (5/5) Accurately ripped 9 | (5/5) Accurately ripped 10 | (5/5) Accurately ripped 11 | (5/5) Accurately ripped 12 | (4/5) Accurately ripped, or (1/5) differs in 9 samples @03:50:61,03:51:02 13 | (5/5) Accurately ripped 14 | (5/5) Accurately ripped 15 | (5/5) Accurately ripped
==== Log checksum 184C84E2A63D13EDD8700393D1327D2187022B874453845AE4F37E41D16B6E7D ====

CUE

REM GENRE "Wonky Techno"REM DATE 1999REM DISCID CB0D150FREM COMMENT "ExactAudioCopy v1.3"PERFORMER "Mr. Oizo"TITLE "Analog Worms Attack"REM COMPOSER ""FILE "01 Bad Start.wav" WAVE TRACK 01 AUDIO TITLE "Bad Start" PERFORMER "Mr. Oizo" REM COMPOSER "" ISRC FRV229900053 INDEX 01 00:00:00FILE "02 Monophonic Shit.wav" WAVE TRACK 02 AUDIO TITLE "Monophonic Shit" PERFORMER "Mr. Oizo" REM COMPOSER "" ISRC FRV229900054 INDEX 01 00:00:00FILE "03 No Day Massacre.wav" WAVE TRACK 03 AUDIO TITLE "No Day Massacre" PERFORMER "Mr. Oizo" REM COMPOSER "" ISRC FRV229900055 INDEX 01 00:00:00FILE "04 Smoking Tape.wav" WAVE TRACK 04 AUDIO TITLE "Smoking Tape" PERFORMER "Mr. Oizo" REM COMPOSER "" ISRC FRV229900056 INDEX 01 00:00:00 TRACK 05 AUDIO TITLE "Last Night a DJ Killed My Dog" PERFORMER "Mr. Oizo" REM COMPOSER "" ISRC FRV229900057 INDEX 00 01:31:65FILE "05 Last Night a DJ Killed My Dog.wav" WAVE INDEX 01 00:00:00FILE "06 The Salad.wav" WAVE TRACK 06 AUDIO TITLE "The Salad" PERFORMER "Mr. Oizo" REM COMPOSER "" ISRC FRV229900058 INDEX 01 00:00:00FILE "07 Quick Relaxing.wav" WAVE TRACK 07 AUDIO TITLE "Quick Relaxing" PERFORMER "Mr. Oizo" REM COMPOSER "" ISRC FRV229900059 INDEX 01 00:00:00FILE "08 Bobby Can't Dance.wav" WAVE TRACK 08 AUDIO TITLE "Bobby Can't Dance" PERFORMER "Mr. Oizo" REM COMPOSER "" ISRC FRV229900063 INDEX 01 00:00:00FILE "09 Analog Worms Attack.wav" WAVE TRACK 09 AUDIO TITLE "Analog Worms Attack" PERFORMER "Mr. Oizo" REM COMPOSER "" ISRC FRV229900060 INDEX 01 00:00:00FILE "10 One Minute Shakin.wav" WAVE TRACK 10 AUDIO TITLE "One Minute Shakin" PERFORMER "Mr. Oizo" REM COMPOSER "" ISRC FRV229900062 INDEX 01 00:00:00FILE "11 Inside the Kidney Machine.wav" WAVE TRACK 11 AUDIO TITLE "Inside the Kidney Machine" PERFORMER "Mr. Oizo" REM COMPOSER "" ISRC FRV229900061 INDEX 01 00:00:00FILE "12 Miaaaw.wav" WAVE TRACK 12 AUDIO TITLE "Miaaaw" PERFORMER "Mr. Oizo" REM COMPOSER "" ISRC FRV229900064 INDEX 01 00:00:00FILE "13 Flat 55.wav" WAVE TRACK 13 AUDIO TITLE "Flat 55" PERFORMER "Mr. Oizo" REM COMPOSER "" ISRC FRV229900065 INDEX 01 00:00:00FILE "14 Feadz On.wav" WAVE TRACK 14 AUDIO TITLE "Feadz On" PERFORMER "Mr. Oizo" REM COMPOSER "" ISRC FRV229900066 INDEX 01 00:00:00FILE "15 Analog Worms Sequel.wav" WAVE TRACK 15 AUDIO TITLE "Analog Worms Sequel" PERFORMER "Mr. Oizo" REM COMPOSER "" ISRC FRV229900067 INDEX 01 00:00:00
1999 - Analog Worms Attack [FAR CD419]
Продолжительность: 54:38
1. Mr. Oizo - Bad Start [1:46]
2. Mr. Oizo - Monophonic Shit [3:56]
3. Mr. Oizo - No Day Massacre [4:17]
4. Mr. Oizo - Smoking Tape [1:31]
5. Mr. Oizo - Last Night A DJ Killed My Dog [4:28]
6. Mr. Oizo - The Salad [3:03]
7. Mr. Oizo - Bobby Can’t Dance [2:46]
8. Mr. Oizo - Analog Worms Attack [4:53]
9. Mr. Oizo - One Minute Shakin [1:14]
10. Mr. Oizo - Inside The Kidney Machine [4:50]
11. Mr. Oizo - Miaaaw [4:23]
12. Mr. Oizo - Flat 55 [2:23]
13. Mr. Oizo - Feadz On [1:11]
14. Mr. Oizo - Analog Worms Sequel [8:39]
15. Mr. Oizo - Flat Beat [5:17]

log and sheetLog

Exact Audio Copy V1.3 from 2. September 2016
EAC extraction logfile from 10. December 2018, 14:14
Mr. Oizo / Analog Worms Attack
Used drive : Optiarc BD-ROM BR-5100S Adapter: 1 ID: 0
Read mode : SecureUtilize accurate stream : YesDefeat audio cache : YesMake use of C2 pointers : No
Read offset correction : 79Overread into Lead-In and Lead-Out : NoFill up missing offset samples with silence : YesDelete leading and trailing silent blocks : NoNull samples used in CRC calculations : YesUsed interface : Installed external ASPI interfaceGap handling : Appended to previous track
Used output format : User Defined EncoderSelected bitrate : 128 kBit/sQuality : HighAdd ID3 tag : NoCommand line compressor : D:\flac-1.3.2-win\win64\flac.exeAdditional command line options : -8 -V -T "ARTIST=%artist%" -T "TITLE=%title%" -T "ALBUM=%albumtitle%" -T "DATE=%year%" -T "TRACKNUMBER=%tracknr%" -T "GENRE=%genre%" -T "COMMENT=ripped by Andy aka yetiisyou" %source%
TOC of the extracted CD
Track | Start | Length | Start sector | End sector --------------------------------------------------------- 1 | 0:00.00 | 1:46.00 | 0 | 7949 2 | 1:46.00 | 3:56.05 | 7950 | 25654 3 | 5:42.05 | 4:17.12 | 25655 | 44941 4 | 9:59.17 | 1:31.23 | 44942 | 51789 5 | 11:30.40 | 4:27.67 | 51790 | 71881 6 | 15:58.32 | 3:03.25 | 71882 | 85631 7 | 19:01.57 | 2:46.23 | 85632 | 98104 8 | 21:48.05 | 4:52.67 | 98105 | 120071 9 | 26:40.72 | 1:13.63 | 120072 | 125609 10 | 27:54.60 | 4:50.32 | 125610 | 147391 11 | 32:45.17 | 4:22.60 | 147392 | 167101 12 | 37:08.02 | 2:22.38 | 167102 | 177789 13 | 39:30.40 | 1:10.67 | 177790 | 183106 14 | 40:41.32 | 8:39.10 | 183107 | 222041 15 | 49:20.42 | 5:16.73 | 222042 | 245814
Track 1
Filename E:\!Ripped by Andy aka yetiisyou\Mr. Oizo - Analog Worms Attack [FAR CD419] [1999]\01. Mr. Oizo - Bad Start.wav
Pre-gap length 0:00:02.00
Peak level 97.9 % Extraction speed 2.3 X Track quality 100.0 % Test CRC 0CCC21D6 Copy CRC 0CCC21D6 Cannot be verified as accurate (confidence 25) [EC94EF4E], AccurateRip returned [B6439CF2] (AR v2) Copy OK
Track 2
Filename E:\!Ripped by Andy aka yetiisyou\Mr. Oizo - Analog Worms Attack [FAR CD419] [1999]\02. Mr. Oizo - Monophonic Shit.wav
Peak level 97.9 % Extraction speed 2.5 X Track quality 99.9 % Test CRC 12299DB4 Copy CRC 12299DB4 Cannot be verified as accurate (confidence 25) [C57BD448], AccurateRip returned [0B9773AE] (AR v2) Copy OK
Track 3
Filename E:\!Ripped by Andy aka yetiisyou\Mr. Oizo - Analog Worms Attack [FAR CD419] [1999]\03. Mr. Oizo - No Day Massacre.wav
Peak level 97.9 % Extraction speed 3.2 X Track quality 100.0 % Test CRC 3D0FB246 Copy CRC 3D0FB246 Cannot be verified as accurate (confidence 25) [267B145C], AccurateRip returned [81BC2906] (AR v2) Copy OK
Track 4
Filename E:\!Ripped by Andy aka yetiisyou\Mr. Oizo - Analog Worms Attack [FAR CD419] [1999]\04. Mr. Oizo - Smoking Tape.wav
Peak level 97.9 % Extraction speed 2.1 X Track quality 99.8 % Test CRC CD5B2469 Copy CRC CD5B2469 Cannot be verified as accurate (confidence 25) [7F21E466], AccurateRip returned [1826FF03] (AR v2) Copy OK
Track 5
Filename E:\!Ripped by Andy aka yetiisyou\Mr. Oizo - Analog Worms Attack [FAR CD419] [1999]\05. Mr. Oizo - Last Night a DJ Killed My Dog.wav
Peak level 97.9 % Extraction speed 3.2 X Track quality 99.9 % Test CRC 50D64847 Copy CRC 50D64847 Cannot be verified as accurate (confidence 23) [7CEAE692], AccurateRip returned [20D31B1D] (AR v2) Copy OK
Track 6
Filename E:\!Ripped by Andy aka yetiisyou\Mr. Oizo - Analog Worms Attack [FAR CD419] [1999]\06. Mr. Oizo - The Salad.wav
Peak level 97.9 % Extraction speed 3.6 X Track quality 100.0 % Test CRC 6844FB41 Copy CRC 6844FB41 Cannot be verified as accurate (confidence 25) [A94BC9EB], AccurateRip returned [18ADB4A8] (AR v2) Copy OK
Track 7
Filename E:\!Ripped by Andy aka yetiisyou\Mr. Oizo - Analog Worms Attack [FAR CD419] [1999]\07. Mr. Oizo - Bobby Can't Dance.wav
Peak level 97.9 % Extraction speed 3.2 X Track quality 99.9 % Test CRC 5DFFF0BB Copy CRC 5DFFF0BB Cannot be verified as accurate (confidence 25) [F85C9D47], AccurateRip returned [822887B3] (AR v2) Copy OK
Track 8
Filename E:\!Ripped by Andy aka yetiisyou\Mr. Oizo - Analog Worms Attack [FAR CD419] [1999]\08. Mr. Oizo - Analog Worms Attack.wav
Peak level 97.9 % Extraction speed 4.2 X Track quality 100.0 % Test CRC B383C3E9 Copy CRC B383C3E9 Cannot be verified as accurate (confidence 24) [B2CB0290], AccurateRip returned [9CF3660B] (AR v2) Copy OK
Track 9
Filename E:\!Ripped by Andy aka yetiisyou\Mr. Oizo - Analog Worms Attack [FAR CD419] [1999]\09. Mr. Oizo - One Minute Shakin.wav
Peak level 97.9 % Extraction speed 3.2 X Track quality 100.0 % Test CRC 4934899E Copy CRC 4934899E Cannot be verified as accurate (confidence 25) [5BE72176], AccurateRip returned [9C1AB4FD] (AR v2) Copy OK
Track 10
Filename E:\!Ripped by Andy aka yetiisyou\Mr. Oizo - Analog Worms Attack [FAR CD419] [1999]\10. Mr. Oizo - Inside the Kidney Machine.wav
Peak level 97.9 % Extraction speed 4.5 X Track quality 100.0 % Test CRC CB2298F6 Copy CRC CB2298F6 Cannot be verified as accurate (confidence 25) [637E2A21], AccurateRip returned [F54C5638] (AR v2) Copy OK
Track 11
Filename E:\!Ripped by Andy aka yetiisyou\Mr. Oizo - Analog Worms Attack [FAR CD419] [1999]\11. Mr. Oizo - Miaaaw.wav
Peak level 97.9 % Extraction speed 4.7 X Track quality 100.0 % Test CRC 2B22EA58 Copy CRC 2B22EA58 Cannot be verified as accurate (confidence 25) [8AE98C15], AccurateRip returned [87F0A319] (AR v2) Copy OK
Track 12
Filename E:\!Ripped by Andy aka yetiisyou\Mr. Oizo - Analog Worms Attack [FAR CD419] [1999]\12. Mr. Oizo - Flat 55.wav
Peak level 97.9 % Extraction speed 4.4 X Track quality 100.0 % Test CRC B3338BE9 Copy CRC B3338BE9 Cannot be verified as accurate (confidence 25) [B820B734], AccurateRip returned [A0DA9C4F] (AR v2) Copy OK
Track 13
Filename E:\!Ripped by Andy aka yetiisyou\Mr. Oizo - Analog Worms Attack [FAR CD419] [1999]\13. Mr. Oizo - Feadz On.wav
Peak level 97.9 % Extraction speed 3.5 X Track quality 100.0 % Test CRC 1906300F Copy CRC 1906300F Cannot be verified as accurate (confidence 24) [467C899B], AccurateRip returned [0AC90D59] (AR v2) Copy OK
Track 14
Filename E:\!Ripped by Andy aka yetiisyou\Mr. Oizo - Analog Worms Attack [FAR CD419] [1999]\14. Mr. Oizo - Analog Wormz Sequel.wav
Peak level 97.9 % Extraction speed 5.5 X Track quality 100.0 % Test CRC 56F2B61D Copy CRC 56F2B61D Cannot be verified as accurate (confidence 24) [EEAA4725], AccurateRip returned [D0EB541C] (AR v2) Copy OK
Track 15
Filename E:\!Ripped by Andy aka yetiisyou\Mr. Oizo - Analog Worms Attack [FAR CD419] [1999]\15. Mr. Oizo - Flat Beat.wav
Peak level 97.9 % Extraction speed 5.6 X Track quality 100.0 % Test CRC 0868A70C Copy CRC 0868A70C Cannot be verified as accurate (confidence 26) [A47E9718], AccurateRip returned [6294F98C] (AR v2) Copy OK
No tracks could be verified as accurateYou may have a different pressing from the one(s) in the database
No errors occurred
End of status report
---- CUETools DB Plugin V2.1.6
[CTDB TOCID: g7fKGQXmX0nk57PWpMuzYDh4K60-] foundSubmit result: g7fKGQXmX0nk57PWpMuzYDh4K60- has been confirmedTrack | CTDB Status 1 | ( 1/126) Accurately ripped 2 | ( 1/126) Accurately ripped 3 | ( 1/126) Accurately ripped 4 | ( 1/126) Accurately ripped 5 | ( 1/126) Accurately ripped 6 | ( 1/126) Accurately ripped 7 | ( 1/126) Accurately ripped 8 | ( 1/126) Accurately ripped 9 | ( 1/126) Accurately ripped 10 | ( 1/126) Accurately ripped 11 | ( 1/126) Accurately ripped 12 | ( 1/126) Accurately ripped 13 | ( 1/126) Accurately ripped 14 | ( 1/126) Accurately ripped 15 | ( 1/126) Accurately ripped
==== Log checksum 12D6D36579E22E705DFA7817CDB824275D22B5578D6010A21C744A1C7E062B07 ====

CUE

REM DATE 1999REM DISCID B40CCD0FREM COMMENT "ExactAudioCopy v1.3"PERFORMER "Mr. Oizo"TITLE "Analog Worms Attack"REM COMPOSER ""FILE "01. Mr. Oizo - Bad Start.wav" WAVE TRACK 01 AUDIO TITLE "Bad Start" PERFORMER "Mr. Oizo" REM COMPOSER "" INDEX 01 00:00:00FILE "02. Mr. Oizo - Monophonic Shit.wav" WAVE TRACK 02 AUDIO TITLE "Monophonic Shit" PERFORMER "Mr. Oizo" REM COMPOSER "" INDEX 01 00:00:00FILE "03. Mr. Oizo - No Day Massacre.wav" WAVE TRACK 03 AUDIO TITLE "No Day Massacre" PERFORMER "Mr. Oizo" REM COMPOSER "" INDEX 01 00:00:00FILE "04. Mr. Oizo - Smoking Tape.wav" WAVE TRACK 04 AUDIO TITLE "Smoking Tape" PERFORMER "Mr. Oizo" REM COMPOSER "" INDEX 01 00:00:00FILE "05. Mr. Oizo - Last Night a DJ Killed My Dog.wav" WAVE TRACK 05 AUDIO TITLE "Last Night a DJ Killed My Dog" PERFORMER "Mr. Oizo" REM COMPOSER "" INDEX 01 00:00:00FILE "06. Mr. Oizo - The Salad.wav" WAVE TRACK 06 AUDIO TITLE "The Salad" PERFORMER "Mr. Oizo" REM COMPOSER "" INDEX 01 00:00:00FILE "07. Mr. Oizo - Bobby Can't Dance.wav" WAVE TRACK 07 AUDIO TITLE "Bobby Can't Dance" PERFORMER "Mr. Oizo" REM COMPOSER "" INDEX 01 00:00:00FILE "08. Mr. Oizo - Analog Worms Attack.wav" WAVE TRACK 08 AUDIO TITLE "Analog Worms Attack" PERFORMER "Mr. Oizo" REM COMPOSER "" INDEX 01 00:00:00FILE "09. Mr. Oizo - One Minute Shakin.wav" WAVE TRACK 09 AUDIO TITLE "One Minute Shakin" PERFORMER "Mr. Oizo" REM COMPOSER "" INDEX 01 00:00:00FILE "10. Mr. Oizo - Inside the Kidney Machine.wav" WAVE TRACK 10 AUDIO TITLE "Inside the Kidney Machine" PERFORMER "Mr. Oizo" REM COMPOSER "" INDEX 01 00:00:00FILE "11. Mr. Oizo - Miaaaw.wav" WAVE TRACK 11 AUDIO TITLE "Miaaaw" PERFORMER "Mr. Oizo" REM COMPOSER "" INDEX 01 00:00:00FILE "12. Mr. Oizo - Flat 55.wav" WAVE TRACK 12 AUDIO TITLE "Flat 55" PERFORMER "Mr. Oizo" REM COMPOSER "" INDEX 01 00:00:00FILE "13. Mr. Oizo - Feadz On.wav" WAVE TRACK 13 AUDIO TITLE "Feadz On" PERFORMER "Mr. Oizo" REM COMPOSER "" INDEX 01 00:00:00FILE "14. Mr. Oizo - Analog Wormz Sequel.wav" WAVE TRACK 14 AUDIO TITLE "Analog Wormz Sequel" PERFORMER "Mr. Oizo" REM COMPOSER "" INDEX 01 00:00:00FILE "15. Mr. Oizo - Flat Beat.wav" WAVE TRACK 15 AUDIO TITLE "Flat Beat" PERFORMER "Mr. Oizo" REM COMPOSER "" INDEX 01 00:00:00

2005 - Moustache (Half A Scissor) (F 230 CD)

Продолжительность: 00:46:12
1. Intro (0:41)
2. The End (1:57)
3. Latex (3:05)
4. Vagiclean 2 (1:09)
5. Straw Anxious (1:53)
6. (E) (1:05)
7. Nurse Bob (2:31)
8. Berleef (2:45)
9. Scum Hotel (1:41)
10. Drop Urge Need Elle (3:13)
11. (EE) (0:59)
12. Stunt (3:17)
13. Moustache (0:14)
14. Half A Scissor (3:02)
15. 1$44 (2:10)
16. Square Surf (2:49)
17. Vagiclean (5:27)
18. Echo Depth Finders Happy To Be Blind (4:17)
19. Echo Depth Finders On The Air (3:57)

Log EAC

Exact Audio Copy V1.1 from 23. June 2015
EAC extraction logfile from 5. September 2015, 23:40
Mr. Oizo / Moustache (Half A Scissor)
Used drive : ASUS BW-12B1ST a Adapter: 1 ID: 0
Read mode : SecureUtilize accurate stream : YesDefeat audio cache : YesMake use of C2 pointers : No
Read offset correction : 6Overread into Lead-In and Lead-Out : NoFill up missing offset samples with silence : YesDelete leading and trailing silent blocks : NoNull samples used in CRC calculations : YesUsed interface : Native Win32 interface for Win NT & 2000Gap handling : Appended to previous track
Used output format : User Defined EncoderSelected bitrate : 1024 kBit/sQuality : HighAdd ID3 tag : NoCommand line compressor : C:\Program Files (x86)\Exact Audio Copy\Flac\flac.exeAdditional command line options : -8 -V -T "ARTIST=%artist%" -T "TITLE=%title%" -T "ALBUM=%albumtitle%" -T "DATE=%year%" -T "TRACKNUMBER=%tracknr1%" -T "GENRE=%genre%" -T "PERFORMER=%albuminterpret%" -T "COMPOSER=%composer%" %haslyrics%--tag-from-file=LYRICS="%lyricsfile%"%haslyrics% -T "ALBUMARTIST=%albumartist%" -T "DISCNUMBER=%cdnumber%" -T "COMMENT=%comment%" %source% -o %dest%
TOC of the extracted CD
Track | Start | Length | Start sector | End sector --------------------------------------------------------- 1 | 0:00.00 | 0:41.48 | 0 | 3122 2 | 0:41.48 | 1:57.73 | 3123 | 11970 3 | 2:39.46 | 3:05.43 | 11971 | 25888 4 | 5:45.14 | 1:09.57 | 25889 | 31120 5 | 6:54.71 | 1:53.26 | 31121 | 39621 6 | 8:48.22 | 1:06.59 | 39622 | 44630 7 | 9:55.06 | 2:31.74 | 44631 | 56029 8 | 12:27.05 | 2:45.56 | 56030 | 68460 9 | 15:12.61 | 1:42.32 | 68461 | 76142 10 | 16:55.18 | 3:15.61 | 76143 | 90828 11 | 20:11.04 | 0:59.18 | 90829 | 95271 12 | 21:10.22 | 3:18.30 | 95272 | 110151 13 | 24:28.52 | 0:15.00 | 110152 | 111276 14 | 24:43.52 | 3:03.57 | 111277 | 125058 15 | 27:47.34 | 2:11.52 | 125059 | 134935 16 | 29:59.11 | 2:50.27 | 134936 | 147712 17 | 32:49.38 | 5:27.15 | 147713 | 172252
Track 1
Filename C:\EAC Rips\Mr. Oizo - Moustache (Half A Scissor) (2005) [FLAC]\01 Intro.wav
Pre-gap length 0:00:02.00
Peak level 98.8 % Extraction speed 0.6 X Track quality 100.0 % Test CRC 51733A82 Copy CRC 51733A82 Accurately ripped (confidence 3) [54E30D5B] (AR v2) Copy OK
Track 2
Filename C:\EAC Rips\Mr. Oizo - Moustache (Half A Scissor) (2005) [FLAC]\02 The End.wav
Peak level 98.8 % Extraction speed 0.9 X Track quality 100.0 % Test CRC B229F657 Copy CRC B229F657 Accurately ripped (confidence 3) [0A61AE59] (AR v2) Copy OK
Track 3
Filename C:\EAC Rips\Mr. Oizo - Moustache (Half A Scissor) (2005) [FLAC]\03 Latex.wav
Peak level 98.8 % Extraction speed 0.9 X Track quality 99.9 % Test CRC EEEF658D Copy CRC EEEF658D Accurately ripped (confidence 3) [8BBD902D] (AR v2) Copy OK
Track 4
Filename C:\EAC Rips\Mr. Oizo - Moustache (Half A Scissor) (2005) [FLAC]\04 Vagiclean 2.wav
Peak level 98.8 % Extraction speed 0.8 X Track quality 100.0 % Test CRC 39B91CB9 Copy CRC 39B91CB9 Accurately ripped (confidence 3) [A90FD2F6] (AR v2) Copy OK
Track 5
Filename C:\EAC Rips\Mr. Oizo - Moustache (Half A Scissor) (2005) [FLAC]\05 Straw Anxious.wav
Peak level 98.8 % Extraction speed 1.0 X Track quality 100.0 % Test CRC F71A327C Copy CRC F71A327C Accurately ripped (confidence 3) [E402BCED] (AR v2) Copy OK
Track 6
Filename C:\EAC Rips\Mr. Oizo - Moustache (Half A Scissor) (2005) [FLAC]\06 (e).wav
Peak level 94.4 % Extraction speed 0.9 X Track quality 100.0 % Test CRC E7432E2B Copy CRC E7432E2B Accurately ripped (confidence 3) [34E117E1] (AR v2) Copy OK
Track 7
Filename C:\EAC Rips\Mr. Oizo - Moustache (Half A Scissor) (2005) [FLAC]\07 Nurse Bob.wav
Peak level 98.8 % Extraction speed 1.2 X Track quality 100.0 % Test CRC 7DCBB8B0 Copy CRC 7DCBB8B0 Accurately ripped (confidence 3) [545E9D08] (AR v2) Copy OK
Track 8
Filename C:\EAC Rips\Mr. Oizo - Moustache (Half A Scissor) (2005) [FLAC]\08 Berleef.wav
Peak level 98.8 % Extraction speed 1.3 X Track quality 100.0 % Test CRC DC043A4C Copy CRC DC043A4C Accurately ripped (confidence 3) [9F44FAC6] (AR v2) Copy OK
Track 9
Filename C:\EAC Rips\Mr. Oizo - Moustache (Half A Scissor) (2005) [FLAC]\09 Scum Hotel.wav
Peak level 98.8 % Extraction speed 1.2 X Track quality 100.0 % Test CRC 683897C8 Copy CRC 683897C8 Accurately ripped (confidence 3) [5113C952] (AR v2) Copy OK
Track 10
Filename C:\EAC Rips\Mr. Oizo - Moustache (Half A Scissor) (2005) [FLAC]\10 Drop Urge Need Elle.wav
Peak level 98.8 % Extraction speed 1.4 X Track quality 100.0 % Test CRC 2029220D Copy CRC 2029220D Accurately ripped (confidence 3) [9E678655] (AR v2) Copy OK
Track 11
Filename C:\EAC Rips\Mr. Oizo - Moustache (Half A Scissor) (2005) [FLAC]\11 (ee).wav
Peak level 81.5 % Extraction speed 1.0 X Track quality 100.0 % Test CRC 34D5EA0B Copy CRC 34D5EA0B Accurately ripped (confidence 3) [15F0AFB3] (AR v2) Copy OK
Track 12
Filename C:\EAC Rips\Mr. Oizo - Moustache (Half A Scissor) (2005) [FLAC]\12 Stunt.wav
Peak level 98.8 % Extraction speed 1.5 X Track quality 100.0 % Test CRC B1EC0DBB Copy CRC B1EC0DBB Accurately ripped (confidence 3) [7B553195] (AR v2) Copy OK
Track 13
Filename C:\EAC Rips\Mr. Oizo - Moustache (Half A Scissor) (2005) [FLAC]\13 Moustache.wav
Pre-gap length 0:00:01.21
Peak level 71.8 % Extraction speed 0.5 X Track quality 100.0 % Test CRC 27DCB94C Copy CRC 27DCB94C Accurately ripped (confidence 3) [18776441] (AR v2) Copy OK
Track 14
Filename C:\EAC Rips\Mr. Oizo - Moustache (Half A Scissor) (2005) [FLAC]\14 Half A Scissor.wav
Peak level 98.8 % Extraction speed 1.5 X Track quality 100.0 % Test CRC C698F741 Copy CRC C698F741 Accurately ripped (confidence 3) [04DFBB39] (AR v2) Copy OK
Track 15
Filename C:\EAC Rips\Mr. Oizo - Moustache (Half A Scissor) (2005) [FLAC]\15 1$44.wav
Peak level 98.8 % Extraction speed 1.5 X Track quality 100.0 % Test CRC 48E3B23A Copy CRC 48E3B23A Accurately ripped (confidence 3) [741074CD] (AR v2) Copy OK
Track 16
Filename C:\EAC Rips\Mr. Oizo - Moustache (Half A Scissor) (2005) [FLAC]\16 Square Surf.wav
Peak level 98.8 % Extraction speed 1.6 X Track quality 100.0 % Test CRC 2C1BC03D Copy CRC 2C1BC03D Accurately ripped (confidence 3) [1637412F] (AR v2) Copy OK
Track 17
Filename C:\EAC Rips\Mr. Oizo - Moustache (Half A Scissor) (2005) [FLAC]\17 Vagiclean.wav
Peak level 98.8 % Extraction speed 1.8 X Track quality 100.0 % Test CRC 65E0F42C Copy CRC 65E0F42C Accurately ripped (confidence 3) [4EE02534] (AR v2) Copy OK
All tracks accurately ripped
No errors occurred
End of status report
---- CUETools DB Plugin V2.1.6
[CTDB TOCID: 33_9QrEiNVd_bcoWzXadtoZbbiQ-] foundSubmit result: 33_9QrEiNVd_bcoWzXadtoZbbiQ- has been confirmedTrack | CTDB Status 1 | (8/8) Accurately ripped 2 | (8/8) Accurately ripped 3 | (8/8) Accurately ripped 4 | (8/8) Accurately ripped 5 | (8/8) Accurately ripped 6 | (8/8) Accurately ripped 7 | (8/8) Accurately ripped 8 | (8/8) Accurately ripped 9 | (8/8) Accurately ripped 10 | (8/8) Accurately ripped 11 | (8/8) Accurately ripped 12 | (8/8) Accurately ripped 13 | (8/8) Accurately ripped 14 | (8/8) Accurately ripped 15 | (8/8) Accurately ripped 16 | (8/8) Accurately ripped 17 | (8/8) Accurately ripped
==== Log checksum C44EF997493EFC93C7E4043E8DA7BA40D940AFBAEC0528F13954FEE5BE1C5450 ====

CUE

REM GENRE "Wonky Techno"REM DATE 2005REM DISCID D508F811REM COMMENT "ExactAudioCopy v1.1"PERFORMER "Mr. Oizo"TITLE "Moustache (Half a Scissor)"FILE "01 Intro.wav" WAVE TRACK 01 AUDIO TITLE "Intro" PERFORMER "Mr. Oizo" ISRC FRV220501090 INDEX 01 00:00:00FILE "02 The End.wav" WAVE TRACK 02 AUDIO TITLE "The End" PERFORMER "Mr. Oizo" ISRC FRV220500047 INDEX 01 00:00:00FILE "03 Latex.wav" WAVE TRACK 03 AUDIO TITLE "Latex" PERFORMER "Mr. Oizo" ISRC FRV220502000 INDEX 01 00:00:00FILE "04 Vagiclean 2.wav" WAVE TRACK 04 AUDIO TITLE "Vagiclean 2" PERFORMER "Mr. Oizo" ISRC FRV220502010 INDEX 01 00:00:00FILE "05 Straw Anxious.wav" WAVE TRACK 05 AUDIO TITLE "Straw Anxious" PERFORMER "Mr. Oizo" ISRC FRV220500051 INDEX 01 00:00:00FILE "06 (e).wav" WAVE TRACK 06 AUDIO TITLE "(e)" PERFORMER "Mr. Oizo" ISRC FRV220500050 INDEX 01 00:00:00FILE "07 Nurse Bob.wav" WAVE TRACK 07 AUDIO TITLE "Nurse Bob" PERFORMER "Mr. Oizo" ISRC FRV220500050 INDEX 01 00:00:00FILE "08 Berleef.wav" WAVE TRACK 08 AUDIO TITLE "Berleef" PERFORMER "Mr. Oizo" ISRC FRV220500052 INDEX 01 00:00:00FILE "09 Scum Hotel.wav" WAVE TRACK 09 AUDIO TITLE "Scum Hotel" PERFORMER "Mr. Oizo" ISRC FRV220500058 INDEX 01 00:00:00FILE "10 Drop Urge Need Elle.wav" WAVE TRACK 10 AUDIO TITLE "Drop Urge Need Elle" PERFORMER "Mr. Oizo" ISRC FRV220500059 INDEX 01 00:00:00FILE "11 (ee).wav" WAVE TRACK 11 AUDIO TITLE "(ee)" PERFORMER "Mr. Oizo" ISRC FRV220500056 INDEX 01 00:00:00FILE "12 Stunt.wav" WAVE TRACK 12 AUDIO TITLE "Stunt" PERFORMER "Mr. Oizo" ISRC FRV220500057 INDEX 01 00:00:00 TRACK 13 AUDIO TITLE "Moustache" PERFORMER "Mr. Oizo" ISRC FRV220500048 INDEX 00 03:17:14FILE "13 Moustache.wav" WAVE INDEX 01 00:00:00FILE "14 Half a Scissor.wav" WAVE TRACK 14 AUDIO TITLE "Half a Scissor" PERFORMER "Mr. Oizo" ISRC FRV220500055 INDEX 01 00:00:00FILE "15 1$44.wav" WAVE TRACK 15 AUDIO TITLE "1$44" PERFORMER "Mr. Oizo" ISRC FRV220500060 INDEX 01 00:00:00FILE "16 Square Surf.wav" WAVE TRACK 16 AUDIO TITLE "Square Surf" PERFORMER "Mr. Oizo" ISRC FRV220502020 INDEX 01 00:00:00FILE "17 Vagiclean.wav" WAVE TRACK 17 AUDIO TITLE "Vagiclean" PERFORMER "Mr. Oizo" ISRC FRV220500061 INDEX 01 00:00:00
2007 - Steak [BEC5772112]
Продолжительность: 36:57
01. SebastiAn - Arrival [1:00]
02. Mr. Oizo - Skatesteak [2:10]
03. Sebastien Tellier & Mr. Oizo - Chivers as a Female [2:15]
04. Mr. Oizo - Chuck [0:34]
05. SebastiAn - Letrablise [0:57]
06. Mr. Oizo - Ringardos [2:11]
07. Sebastien Tellier - Stadium [1:39]
08. SebastiAn - Itea [2:05]
09. Sebastien Tellier & Mr. Oizo - Plug It [2:45]
10. Mr. Oizo - X Schmidt [1:05]
11. Sebastien Tellier & Mr. Oizo - Hashis Vers [2:01]
12. Mr. Oizo - Blue Wet Shirt [0:42]
13. SebastiAn - Victimo [1:27]
14. Sebastien Tellier & Mr. Oizo - Top 50 [2:02]
15. Sebastien Tellier - Exploites [3:06]
16. Mr. Oizo - C.H.I.V.E.R.S [2:04]
17. Mr. Oizo - Bonhomme [2:32]
18. Sebastien Tellier & Mr. Oizo - Toizelle [2:11]
19. SebastiAn - Kinder [0:48]
20. Mr. Oizo - Bleue [2:25]
21. Sebastien Tellier & Mr. Oizo - Construction [0:56]

log and sheetLog

Exact Audio Copy V0.99 prebeta 5 from 4. May 2009
EAC extraction logfile from 24. September 2010, 16:04
Various Artists / Steak
Used drive : TSSTcorpCDDVDW SH-S223F Adapter: 1 ID: 1
Read mode : SecureUtilize accurate stream : YesDefeat audio cache : YesMake use of C2 pointers : No
Read offset correction : 6Overread into Lead-In and Lead-Out : NoFill up missing offset samples with silence : YesDelete leading and trailing silent blocks : NoNull samples used in CRC calculations : YesUsed interface : Native Win32 interface for Win NT & 2000Gap handling : Appended to previous track
Used output format : User Defined EncoderSelected bitrate : 1024 kBit/sQuality : HighAdd ID3 tag : NoCommand line compressor : C:\Program Files\Exact Audio Copy\Flac\flac.exeAdditional command line options : -V -8 -T "artist=%a" -T "title=%t" -T "album=%g" -T "date=%y" -T "tracknumber=%n" -T "genre=%m" %s
TOC of the extracted CD
Track | Start | Length | Start sector | End sector --------------------------------------------------------- 1 | 0:00.00 | 0:59.48 | 0 | 4472 2 | 0:59.48 | 2:10.31 | 4473 | 14253 3 | 3:10.04 | 2:15.21 | 14254 | 24399 4 | 5:25.25 | 0:34.21 | 24400 | 26970 5 | 5:59.46 | 0:57.08 | 26971 | 31253 6 | 6:56.54 | 2:11.15 | 31254 | 41093 7 | 9:07.69 | 1:39.36 | 41094 | 48554 8 | 10:47.30 | 2:04.56 | 48555 | 57910 9 | 12:52.11 | 2:45.15 | 57911 | 70300 10 | 15:37.26 | 1:05.03 | 70301 | 75178 11 | 16:42.29 | 2:00.64 | 75179 | 84242 12 | 18:43.18 | 0:42.02 | 84243 | 87394 13 | 19:25.20 | 1:27.33 | 87395 | 93952 14 | 20:52.53 | 2:02.15 | 93953 | 103117 15 | 22:54.68 | 3:06.09 | 103118 | 117076 16 | 26:01.02 | 2:04.31 | 117077 | 126407 17 | 28:05.33 | 2:32.06 | 126408 | 137813 18 | 30:37.39 | 2:11.21 | 137814 | 147659 19 | 32:48.60 | 0:47.44 | 147660 | 151228 20 | 33:36.29 | 2:24.54 | 151229 | 162082 21 | 36:01.08 | 0:56.08 | 162083 | 166290
Track 1
Filename C:\EAC\Steak (2007) - FLAC\01 - SebastiAn - Arrival.wav
Pre-gap length 0:00:02.00
Peak level 83.2 % Track quality 100.0 % Test CRC D8C5903E Copy CRC D8C5903E Accurately ripped (confidence 3) [5C8A3662] Copy OK
Track 2
Filename C:\EAC\Steak (2007) - FLAC\02 - Mr. Oizo - Skatesteak.wav
Pre-gap length 0:00:00.89
Peak level 100.0 % Track quality 100.0 % Test CRC 4303480D Copy CRC 4303480D Accurately ripped (confidence 3) [77EE10FA] Copy OK
Track 3
Filename C:\EAC\Steak (2007) - FLAC\03 - Sebastien Tellier & Mr. Oizo - Chivers as a Female.wav
Pre-gap length 0:00:00.32
Peak level 100.0 % Track quality 100.0 % Test CRC EAD7707F Copy CRC EAD7707F Accurately ripped (confidence 3) [CA672B18] Copy OK
Track 4
Filename C:\EAC\Steak (2007) - FLAC\04 - Mr. Oizo - Chuck.wav
Peak level 79.4 % Track quality 100.0 % Test CRC A01B58EF Copy CRC A01B58EF Accurately ripped (confidence 3) [D236565E] Copy OK
Track 5
Filename C:\EAC\Steak (2007) - FLAC\05 - SebastiAn - Letrablise.wav
Pre-gap length 0:00:00.89
Peak level 92.7 % Track quality 99.8 % Test CRC E44919A8 Copy CRC E44919A8 Accurately ripped (confidence 3) [68A3E3B0] Copy OK
Track 6
Filename C:\EAC\Steak (2007) - FLAC\06 - Mr. Oizo - Ringardos.wav
Pre-gap length 0:00:00.92
Peak level 100.0 % Track quality 100.0 % Test CRC 3461737D Copy CRC 3461737D Accurately ripped (confidence 3) [FA00A8FA] Copy OK
Track 7
Filename C:\EAC\Steak (2007) - FLAC\07 - Sebastien Tellier - Stadium.wav
Pre-gap length 0:00:03.22
Peak level 99.9 % Track quality 100.0 % Test CRC 7FDDC216 Copy CRC 7FDDC216 Accurately ripped (confidence 3) [B247524E] Copy OK
Track 8
Filename C:\EAC\Steak (2007) - FLAC\08 - SebastiAn - Itea.wav
Pre-gap length 0:00:00.96
Peak level 84.5 % Track quality 100.0 % Test CRC D3A82F7C Copy CRC D3A82F7C Accurately ripped (confidence 3) [71E39282] Copy OK
Track 9
Filename C:\EAC\Steak (2007) - FLAC\09 - Sebastien Tellier & Mr. Oizo - Plug It.wav
Peak level 100.0 % Track quality 100.0 % Test CRC 08E4ACB2 Copy CRC 08E4ACB2 Accurately ripped (confidence 3) [41571DE9] Copy OK
Track 10
Filename C:\EAC\Steak (2007) - FLAC\10 - Mr. Oizo - X Schmidt.wav
Pre-gap length 0:00:00.98
Peak level 99.9 % Track quality 100.0 % Test CRC CC355F5A Copy CRC CC355F5A Accurately ripped (confidence 3) [28722366] Copy OK
Track 11
Filename C:\EAC\Steak (2007) - FLAC\11 - Sebastien Tellier & Mr. Oizo - Hashis Vers.wav
Pre-gap length 0:00:02.16
Peak level 100.0 % Track quality 99.9 % Test CRC AB7E9C57 Copy CRC AB7E9C57 Accurately ripped (confidence 3) [255222D9] Copy OK
Track 12
Filename C:\EAC\Steak (2007) - FLAC\12 - Mr. Oizo - Blue Wet Shirt.wav
Peak level 100.0 % Track quality 100.0 % Test CRC 3E8BD017 Copy CRC 3E8BD017 Accurately ripped (confidence 3) [13F1710F] Copy OK
Track 13
Filename C:\EAC\Steak (2007) - FLAC\13 - SebastiAn - Victimo.wav
Pre-gap length 0:00:00.97
Peak level 82.4 % Track quality 100.0 % Test CRC CE9C6E01 Copy CRC CE9C6E01 Accurately ripped (confidence 3) [C09A00BA] Copy OK
Track 14
Filename C:\EAC\Steak (2007) - FLAC\14 - Sebastien Tellier & Mr. Oizo - Top 50.wav
Pre-gap length 0:00:01.22
Peak level 100.0 % Track quality 99.9 % Test CRC 11F11C12 Copy CRC 11F11C12 Accurately ripped (confidence 3) [6475C462] Copy OK
Track 15
Filename C:\EAC\Steak (2007) - FLAC\15 - Sebastien Tellier - Exploites.wav
Pre-gap length 0:00:03.60
Peak level 87.3 % Track quality 100.0 % Test CRC 1A77D2C8 Copy CRC 1A77D2C8 Accurately ripped (confidence 3) [FC7CA573] Copy OK
Track 16
Filename C:\EAC\Steak (2007) - FLAC\16 - Mr. Oizo - C.H.I.V.E.R.S.wav
Pre-gap length 0:00:02.01
Peak level 100.0 % Track quality 100.0 % Test CRC 5B78A8E3 Copy CRC 5B78A8E3 Accurately ripped (confidence 3) [BFF974E9] Copy OK
Track 17
Filename C:\EAC\Steak (2007) - FLAC\17 - Mr. Oizo - Bonhomme.wav
Pre-gap length 0:00:01.57
Peak level 100.0 % Track quality 99.9 % Test CRC 498ABA0E Copy CRC 498ABA0E Accurately ripped (confidence 3) [9B8F3E42] Copy OK
Track 18
Filename C:\EAC\Steak (2007) - FLAC\18 - Sebastien Tellier & Mr. Oizo - Toizelle.wav
Pre-gap length 0:00:03.96
Peak level 100.0 % Track quality 100.0 % Test CRC 0E7FD7F5 Copy CRC 0E7FD7F5 Accurately ripped (confidence 3) [DA3B66F4] Copy OK
Track 19
Filename C:\EAC\Steak (2007) - FLAC\19 - SebastiAn - Kinder.wav
Peak level 73.8 % Track quality 100.0 % Test CRC DE45F9E0 Copy CRC DE45F9E0 Accurately ripped (confidence 3) [ED34F7A9] Copy OK
Track 20
Filename C:\EAC\Steak (2007) - FLAC\20 - Mr. Oizo - Bleue.wav
Pre-gap length 0:00:02.89
Peak level 100.0 % Track quality 100.0 % Test CRC BFB54DD9 Copy CRC BFB54DD9 Accurately ripped (confidence 3) [6A84474C] Copy OK
Track 21
Filename C:\EAC\Steak (2007) - FLAC\21 - Sebastien Tellier & Mr. Oizo - Construction.wav
Pre-gap length 0:00:11.85
Peak level 100.0 % Track quality 100.0 % Test CRC 43DB551E Copy CRC 43DB551E Accurately ripped (confidence 3) [D2B22ADF] Copy OK
All tracks accurately ripped
No errors occurred
End of status report

CUE

REM GENRE ElektroREM DATE 2007REM DISCID 2108A915REM COMMENT "ExactAudioCopy v0.99pb5"FILE "01 - SebastiAn - Arrival.wav" WAVE TRACK 01 AUDIO INDEX 01 00:00:00 TRACK 02 AUDIO INDEX 00 00:58:56FILE "02 - Mr. Oizo - Skatesteak.wav" WAVE INDEX 01 00:00:00 TRACK 03 AUDIO INDEX 00 02:10:07FILE "03 - Sebastien Tellier & Mr. Oizo - Chivers as a Female.wav" WAVE INDEX 01 00:00:00FILE "04 - Mr. Oizo - Chuck.wav" WAVE TRACK 04 AUDIO INDEX 01 00:00:00 TRACK 05 AUDIO INDEX 00 00:33:29FILE "05 - SebastiAn - Letrablise.wav" WAVE INDEX 01 00:00:00 TRACK 06 AUDIO INDEX 00 00:56:14FILE "06 - Mr. Oizo - Ringardos.wav" WAVE INDEX 01 00:00:00 TRACK 07 AUDIO INDEX 00 02:07:73FILE "07 - Sebastien Tellier - Stadium.wav" WAVE INDEX 01 00:00:00 TRACK 08 AUDIO INDEX 00 01:38:39FILE "08 - SebastiAn - Itea.wav" WAVE INDEX 01 00:00:00FILE "09 - Sebastien Tellier & Mr. Oizo - Plug It.wav" WAVE TRACK 09 AUDIO INDEX 01 00:00:00 TRACK 10 AUDIO INDEX 00 02:44:16FILE "10 - Mr. Oizo - X Schmidt.wav" WAVE INDEX 01 00:00:00 TRACK 11 AUDIO INDEX 00 01:02:66FILE "11 - Sebastien Tellier & Mr. Oizo - Hashis Vers.wav" WAVE INDEX 01 00:00:00FILE "12 - Mr. Oizo - Blue Wet Shirt.wav" WAVE TRACK 12 AUDIO INDEX 01 00:00:00 TRACK 13 AUDIO INDEX 00 00:41:04FILE "13 - SebastiAn - Victimo.wav" WAVE INDEX 01 00:00:00 TRACK 14 AUDIO INDEX 00 01:26:16FILE "14 - Sebastien Tellier & Mr. Oizo - Top 50.wav" WAVE INDEX 01 00:00:00 TRACK 15 AUDIO INDEX 00 01:58:45FILE "15 - Sebastien Tellier - Exploites.wav" WAVE INDEX 01 00:00:00 TRACK 16 AUDIO INDEX 00 03:04:08FILE "16 - Mr. Oizo - C.H.I.V.E.R.S.wav" WAVE INDEX 01 00:00:00 TRACK 17 AUDIO INDEX 00 02:02:63FILE "17 - Mr. Oizo - Bonhomme.wav" WAVE INDEX 01 00:00:00 TRACK 18 AUDIO INDEX 00 02:28:09FILE "18 - Sebastien Tellier & Mr. Oizo - Toizelle.wav" WAVE INDEX 01 00:00:00FILE "19 - SebastiAn - Kinder.wav" WAVE TRACK 19 AUDIO INDEX 01 00:00:00 TRACK 20 AUDIO INDEX 00 00:44:52FILE "20 - Mr. Oizo - Bleue.wav" WAVE INDEX 01 00:00:00 TRACK 21 AUDIO INDEX 00 02:12:65FILE "21 - Sebastien Tellier & Mr. Oizo - Construction.wav" WAVE INDEX 01 00:00:00

2008 - Lambs Anger - (BEC 577241 8)

Продолжительность:44 min 31 sec
[02:12] 01. Mr. Oizo - Hun
[02:09] 02. Mr. Oizo - Pourriture2
[04:11] 03. Mr. Oizo - Z
[02:51] 04. Mr. Oizo - Cut Dick
[02:21] 05. Mr. Oizo - Two Takes It (Feat. Carmen Castro)
[01:36] 06. Mr. Oizo - Rank
[03:19] 07. Mr. Oizo - Bruce Willis Is Dead
[02:16] 08. Mr. Oizo - Jo
[02:51] 09. Mr. Oizo - Positif
[01:13] 10. Mr. Oizo - Lambs Anger
[02:48] 11. Mr. Oizo - Erreur Jean (Feat. Errorsmith)
[02:39] 12. Mr. Oizo - Steroids (Feat. Uffie)
[03:38] 13. Mr. Oizo - Gay Dentists
[03:24] 14. Mr. Oizo - Pourriture7
[02:11] 15. Mr. Oizo - W
[01:23] 16. Mr. Oizo - Lars Von Sen
[03:20] 17. Mr. Oizo - Blind Concerto

Log EAC

Exact Audio Copy V1.3 from 2. September 2016
EAC extraction logfile from 26. November 2017, 15:36
Mr. Oizo / Lambs Anger
Used drive : ASUS DRW-24B5ST Adapter: 6 ID: 0
Read mode : SecureUtilize accurate stream : YesDefeat audio cache : YesMake use of C2 pointers : No
Read offset correction : 6Overread into Lead-In and Lead-Out : NoFill up missing offset samples with silence : YesDelete leading and trailing silent blocks : NoNull samples used in CRC calculations : YesUsed interface : Installed external ASPI interfaceGap handling : Appended to previous track
Used output format : User Defined EncoderSelected bitrate : 128 kBit/sQuality : HighAdd ID3 tag : NoCommand line compressor : D:\flac-1.3.2-win\win64\flac.exeAdditional command line options : -8 -V -T "ARTIST=%artist%" -T "TITLE=%title%" -T "ALBUM=%albumtitle%" -T "DATE=%year%" -T "TRACKNUMBER=%tracknr%" -T "GENRE=%genre%" -T "COMMENT=ripped by Andy aka yetiisyou" %source%
TOC of the extracted CD
Track | Start | Length | Start sector | End sector --------------------------------------------------------- 1 | 0:00.00 | 2:12.31 | 0 | 9930 2 | 2:12.31 | 2:09.18 | 9931 | 19623 3 | 4:21.49 | 4:11.60 | 19624 | 38508 4 | 8:33.34 | 2:51.06 | 38509 | 51339 5 | 11:24.40 | 2:21.74 | 51340 | 61988 6 | 13:46.39 | 1:36.41 | 61989 | 69229 7 | 15:23.05 | 3:19.47 | 69230 | 84201 8 | 18:42.52 | 2:16.59 | 84202 | 94460 9 | 20:59.36 | 2:51.09 | 94461 | 107294 10 | 23:50.45 | 1:13.72 | 107295 | 112841 11 | 25:04.42 | 2:48.68 | 112842 | 125509 12 | 27:53.35 | 2:39.01 | 125510 | 137435 13 | 30:32.36 | 3:38.37 | 137436 | 153822 14 | 34:10.73 | 3:24.44 | 153823 | 169166 15 | 37:35.42 | 2:11.49 | 169167 | 179040 16 | 39:47.16 | 1:23.35 | 179041 | 185300 17 | 41:10.51 | 3:20.38 | 185301 | 200338
Track 1
Filename E:\!Ripped by Andy aka yetiisyou\2008 - Mr.Oizo - Lambs Anger [BEC5772418]\01. Mr. Oizo - Hun.wav
Pre-gap length 0:00:02.00
Peak level 99.8 % Extraction speed 1.8 X Track quality 100.0 % Test CRC EC4A851C Copy CRC EC4A851C Accurately ripped (confidence 2) [3E7FC637] (AR v1) Copy OK
Track 2
Filename E:\!Ripped by Andy aka yetiisyou\2008 - Mr.Oizo - Lambs Anger [BEC5772418]\02. Mr. Oizo - Pourriture 2.wav
Peak level 100.0 % Extraction speed 1.9 X Track quality 100.0 % Test CRC 71B0790F Copy CRC 71B0790F Accurately ripped (confidence 2) [EE54FCE1] (AR v1) Copy OK
Track 3
Filename E:\!Ripped by Andy aka yetiisyou\2008 - Mr.Oizo - Lambs Anger [BEC5772418]\03. Mr. Oizo - Z.wav
Pre-gap length 0:00:00.01
Peak level 99.8 % Extraction speed 2.3 X Track quality 100.0 % Test CRC 3FD26AEF Copy CRC 3FD26AEF Accurately ripped (confidence 2) [7A7A2BBC] (AR v1) Copy OK
Track 4
Filename E:\!Ripped by Andy aka yetiisyou\2008 - Mr.Oizo - Lambs Anger [BEC5772418]\04. Mr. Oizo - Cut Dick.wav
Pre-gap length 0:00:00.01
Peak level 99.8 % Extraction speed 2.3 X Track quality 100.0 % Test CRC 2912E8ED Copy CRC 2912E8ED Accurately ripped (confidence 2) [2E9E5940] (AR v1) Copy OK
Track 5
Filename E:\!Ripped by Andy aka yetiisyou\2008 - Mr.Oizo - Lambs Anger [BEC5772418]\05. Mr. Oizo feat. Carmen Castro - Two Takes It.wav
Pre-gap length 0:00:02.20
Peak level 100.0 % Extraction speed 2.3 X Track quality 100.0 % Test CRC F4D7EAD9 Copy CRC F4D7EAD9 Accurately ripped (confidence 2) [1D6DF433] (AR v1) Copy OK
Track 6
Filename E:\!Ripped by Andy aka yetiisyou\2008 - Mr.Oizo - Lambs Anger [BEC5772418]\06. Mr. Oizo - Rank.wav
Pre-gap length 0:00:00.01
Peak level 100.0 % Extraction speed 2.2 X Track quality 100.0 % Test CRC 0B5D68B0 Copy CRC 0B5D68B0 Accurately ripped (confidence 2) [585CDBDC] (AR v1) Copy OK
Track 7
Filename E:\!Ripped by Andy aka yetiisyou\2008 - Mr.Oizo - Lambs Anger [BEC5772418]\07. Mr. Oizo - Bruce Willis Is Dead.wav
Peak level 99.8 % Extraction speed 2.7 X Track quality 100.0 % Test CRC BAC41F55 Copy CRC BAC41F55 Accurately ripped (confidence 2) [EC6F02B5] (AR v1) Copy OK
Track 8
Filename E:\!Ripped by Andy aka yetiisyou\2008 - Mr.Oizo - Lambs Anger [BEC5772418]\08. Mr. Oizo - Jo.wav
Pre-gap length 0:00:00.01
Peak level 99.8 % Extraction speed 1.6 X Track quality 99.9 % Test CRC F90A7C49 Copy CRC F90A7C49 Cannot be verified as accurate (confidence 18) [7B3E2C25], AccurateRip returned [BF384273] (AR v2) Copy OK
Track 9
Filename E:\!Ripped by Andy aka yetiisyou\2008 - Mr.Oizo - Lambs Anger [BEC5772418]\09. Mr. Oizo - Positif.wav
Pre-gap length 0:00:00.33
Peak level 99.8 % Extraction speed 2.8 X Track quality 100.0 % Test CRC EC286CA8 Copy CRC EC286CA8 Accurately ripped (confidence 2) [F28F6A08] (AR v1) Copy OK
Track 10
Filename E:\!Ripped by Andy aka yetiisyou\2008 - Mr.Oizo - Lambs Anger [BEC5772418]\10. Mr. Oizo - Lambs Anger.wav
Pre-gap length 0:00:00.53
Peak level 90.1 % Extraction speed 2.2 X Track quality 100.0 % Test CRC 8289E6B1 Copy CRC 8289E6B1 Accurately ripped (confidence 2) [A4C79F78] (AR v1) Copy OK
Track 11
Filename E:\!Ripped by Andy aka yetiisyou\2008 - Mr.Oizo - Lambs Anger [BEC5772418]\11. Mr. Oizo feat. Errorsmith - Erreur Jean.wav
Pre-gap length 0:00:00.25
Peak level 99.8 % Extraction speed 2.9 X Track quality 100.0 % Test CRC D1678F55 Copy CRC D1678F55 Accurately ripped (confidence 2) [8EFA5E49] (AR v1) Copy OK
Track 12
Filename E:\!Ripped by Andy aka yetiisyou\2008 - Mr.Oizo - Lambs Anger [BEC5772418]\12. Mr. Oizo feat. Uffie - Steroïds.wav
Peak level 100.0 % Extraction speed 2.0 X Track quality 99.9 % Test CRC 42D0F0F7 Copy CRC 42D0F0F7 Accurately ripped (confidence 2) [F72DAED5] (AR v1) Copy OK
Track 13
Filename E:\!Ripped by Andy aka yetiisyou\2008 - Mr.Oizo - Lambs Anger [BEC5772418]\13. Mr. Oizo - Gay Dentists.wav
Pre-gap length 0:00:01.12
Peak level 99.8 % Extraction speed 3.2 X Track quality 100.0 % Test CRC 459DCA41 Copy CRC 459DCA41 Accurately ripped (confidence 2) [23A087B0] (AR v1) Copy OK
Track 14
Filename E:\!Ripped by Andy aka yetiisyou\2008 - Mr.Oizo - Lambs Anger [BEC5772418]\14. Mr. Oizo - Pourriture 7.wav
Pre-gap length 0:00:01.44
Peak level 99.8 % Extraction speed 3.3 X Track quality 100.0 % Test CRC F0B935FD Copy CRC F0B935FD Accurately ripped (confidence 2) [0F1E2D79] (AR v1) Copy OK
Track 15
Filename E:\!Ripped by Andy aka yetiisyou\2008 - Mr.Oizo - Lambs Anger [BEC5772418]\15. Mr. Oizo - W.wav
Pre-gap length 0:00:00.02
Peak level 99.8 % Extraction speed 3.1 X Track quality 100.0 % Test CRC EA217F2C Copy CRC EA217F2C Accurately ripped (confidence 2) [6A4A513B] (AR v1) Copy OK
Track 16
Filename E:\!Ripped by Andy aka yetiisyou\2008 - Mr.Oizo - Lambs Anger [BEC5772418]\16. Mr. Oizo - Lars Von Sen.wav
Pre-gap length 0:00:00.14
Peak level 98.8 % Extraction speed 2.7 X Track quality 100.0 % Test CRC 1995C334 Copy CRC 1995C334 Accurately ripped (confidence 2) [DF521A32] (AR v1) Copy OK
Track 17
Filename E:\!Ripped by Andy aka yetiisyou\2008 - Mr.Oizo - Lambs Anger [BEC5772418]\17. Mr. Oizo - Blind Concerto.wav
Pre-gap length 0:00:03.36
Peak level 96.6 % Extraction speed 2.4 X Track quality 99.9 % Test CRC 9A521C83 Copy CRC 9A521C83 Accurately ripped (confidence 2) [9BF87AC1] (AR v1) Copy OK
16 track(s) accurately ripped 1 track(s) could not be verified as accurate
Some tracks could not be verified as accurate
No errors occurred
End of status report
---- CUETools DB Plugin V2.1.6
[CTDB TOCID: uuU8h_WESheCMG3PAdAA.ilmXGA-] foundSubmit result: uuU8h_WESheCMG3PAdAA.ilmXGA- has been confirmedTrack | CTDB Status 1 | (50/50) Accurately ripped 2 | (50/50) Accurately ripped 3 | (49/50) Accurately ripped 4 | (49/50) Accurately ripped 5 | (50/50) Accurately ripped 6 | (50/50) Accurately ripped 7 | (50/50) Accurately ripped 8 | (50/50) Accurately ripped 9 | (50/50) Accurately ripped 10 | (50/50) Accurately ripped 11 | (50/50) Accurately ripped 12 | (50/50) Accurately ripped 13 | (50/50) Accurately ripped 14 | (50/50) Accurately ripped 15 | (50/50) Accurately ripped 16 | (50/50) Accurately ripped 17 | (50/50) Accurately ripped
==== Log checksum F664579F5F4224AC80767A36421577463581E85140BC1CFF2E35C4B04648320C ====

CUE

REM DATE 2008REM DISCID DF0A6F11REM COMMENT "ExactAudioCopy v1.3"PERFORMER "Mr. Oizo"TITLE "Lambs Anger"REM COMPOSER ""FILE "01. Mr. Oizo - Hun.wav" WAVE TRACK 01 AUDIO TITLE "Hun" PERFORMER "Mr. Oizo" REM COMPOSER "" INDEX 01 00:00:00FILE "02. Mr. Oizo - Pourriture 2.wav" WAVE TRACK 02 AUDIO TITLE "Pourriture 2" PERFORMER "Mr. Oizo" REM COMPOSER "" INDEX 01 00:00:00 TRACK 03 AUDIO TITLE "Z" PERFORMER "Mr. Oizo" REM COMPOSER "" INDEX 00 02:09:17FILE "03. Mr. Oizo - Z.wav" WAVE INDEX 01 00:00:00 TRACK 04 AUDIO TITLE "Cut Dick" PERFORMER "Mr. Oizo" REM COMPOSER "" INDEX 00 04:11:59FILE "04. Mr. Oizo - Cut Dick.wav" WAVE INDEX 01 00:00:00 TRACK 05 AUDIO TITLE "Two Takes It" PERFORMER "Mr. Oizo feat. Carmen Castro" REM COMPOSER "" INDEX 00 02:48:61FILE "05. Mr. Oizo feat. Carmen Castro - Two Takes It.wav" WAVE INDEX 01 00:00:00 TRACK 06 AUDIO TITLE "Rank" PERFORMER "Mr. Oizo" REM COMPOSER "" INDEX 00 02:21:73FILE "06. Mr. Oizo - Rank.wav" WAVE INDEX 01 00:00:00FILE "07. Mr. Oizo - Bruce Willis Is Dead.wav" WAVE TRACK 07 AUDIO TITLE "Bruce Willis Is Dead" PERFORMER "Mr. Oizo" REM COMPOSER "" INDEX 01 00:00:00 TRACK 08 AUDIO TITLE "Jo" PERFORMER "Mr. Oizo" REM COMPOSER "" INDEX 00 03:19:46FILE "08. Mr. Oizo - Jo.wav" WAVE INDEX 01 00:00:00 TRACK 09 AUDIO TITLE "Positif" PERFORMER "Mr. Oizo" REM COMPOSER "" INDEX 00 02:16:26FILE "09. Mr. Oizo - Positif.wav" WAVE INDEX 01 00:00:00 TRACK 10 AUDIO TITLE "Lambs Anger" PERFORMER "Mr. Oizo" REM COMPOSER "" INDEX 00 02:50:31FILE "10. Mr. Oizo - Lambs Anger.wav" WAVE INDEX 01 00:00:00 TRACK 11 AUDIO TITLE "Erreur Jean" PERFORMER "Mr. Oizo feat. Errorsmith" REM COMPOSER "" INDEX 00 01:13:47FILE "11. Mr. Oizo feat. Errorsmith - Erreur Jean.wav" WAVE INDEX 01 00:00:00FILE "12. Mr. Oizo feat. Uffie - Steroids.wav" WAVE TRACK 12 AUDIO TITLE "Steroids" PERFORMER "Mr. Oizo feat. Uffie" REM COMPOSER "" INDEX 01 00:00:00 TRACK 13 AUDIO TITLE "Gay Dentists" PERFORMER "Mr. Oizo" REM COMPOSER "" INDEX 00 02:37:64FILE "13. Mr. Oizo - Gay Dentists.wav" WAVE INDEX 01 00:00:00 TRACK 14 AUDIO TITLE "Pourriture 7" PERFORMER "Mr. Oizo" REM COMPOSER "" INDEX 00 03:36:68FILE "14. Mr. Oizo - Pourriture 7.wav" WAVE INDEX 01 00:00:00 TRACK 15 AUDIO TITLE "W" PERFORMER "Mr. Oizo" REM COMPOSER "" INDEX 00 03:24:42FILE "15. Mr. Oizo - W.wav" WAVE INDEX 01 00:00:00 TRACK 16 AUDIO TITLE "Lars Von Sen" PERFORMER "Mr. Oizo" REM COMPOSER "" INDEX 00 02:11:35FILE "16. Mr. Oizo - Lars Von Sen.wav" WAVE INDEX 01 00:00:00 TRACK 17 AUDIO TITLE "Blind Concerto" PERFORMER "Mr. Oizo" REM COMPOSER "" INDEX 00 01:19:74FILE "17. Mr. Oizo - Blind Concerto.wav" WAVE INDEX 01 00:00:00
2010 - Rubber Soundtrack Продолжительность: 30:11
01 Mr Oizo & Gaspard Augé - Symph08 [01:28]
02 Mr Oizo & Gaspard Augé - Rubber [04:08]
03 Mr Oizo & Gaspard Augé - Crows and Guts [02:28]
04 Mr Oizo & Gaspard Augé - Tricycle Express [03:50]
05 Mr Oizo & Gaspard Augé - Everything Is Fake [01:38]
06 Mr Oizo & Gaspard Augé - Room 16 [02:27]
07 Mr Oizo & Gaspard Augé - Bellyball Road [01:07]
08 Mr Oizo & Gaspard Augé - No Reason [02:10]
09 Mr Oizo & Gaspard Augé - Sheila [03:27]
10 Mr Oizo & Gaspard Augé - Racket [01:34]
11 Mr Oizo & Gaspard Augé - Le Caoutchouc [01:45]
12 Mr Oizo & Gaspard Augé - Polocaust [01:20]
13 Mr Oizo & Gaspard Augé - Dump [01:13]
14 Mr Oizo & Gaspard Augé - Sunsetire [01:29]

log and sheetLog

Exact Audio Copy V1.0 beta 3 from 29. August 2011
EAC extraction logfile from 4. January 2014, 21:37
Mr Oizo & Gaspard Augé / Rubber Soundtrack (Promo)
Used drive : ASUS BW-16D1HT Adapter: 7 ID: 0
Read mode : SecureUtilize accurate stream : YesDefeat audio cache : YesMake use of C2 pointers : No
Read offset correction : 6Overread into Lead-In and Lead-Out : NoFill up missing offset samples with silence : YesDelete leading and trailing silent blocks : NoNull samples used in CRC calculations : YesUsed interface : Installed external ASPI interfaceGap handling : Appended to previous track
Used output format : User Defined EncoderSelected bitrate : 32 kBit/sQuality : HighAdd ID3 tag : NoCommand line compressor : C:\Program Files (x86)\FLAC\flac.exeAdditional command line options : -8 -V -T "ARTIST=%artist%" -T "TITLE=%title%" -T "ALBUM=%albumtitle%" -T "DATE=%year%" -T "TRACKNUMBER=%tracknr%" -T "GENRE=%genre%" -T "PERFORMER=%albuminterpret%" -T "COMPOSER=%composer%" %haslyrics%--tag-from-file=LYRICS="%lyricsfile%"%haslyrics% -T "ALBUMARTIST=%albumartist%" -T "DISCNUMBER=%cdnumber%" -T "TOTALDISCS=%totalcds%" -T "TOTALTRACKS=%numtracks%" -T "COMMENT=%comment%" %source% -o %dest%
TOC of the extracted CD
Track | Start | Length | Start sector | End sector --------------------------------------------------------- 1 | 0:00.00 | 1:28.23 | 0 | 6622 2 | 1:28.23 | 4:08.62 | 6623 | 25284 3 | 5:37.10 | 2:28.11 | 25285 | 36395 4 | 8:05.21 | 3:50.61 | 36396 | 53706 5 | 11:56.07 | 1:38.05 | 53707 | 61061 6 | 13:34.12 | 2:27.15 | 61062 | 72101 7 | 16:01.27 | 1:07.40 | 72102 | 77166 8 | 17:08.67 | 1:51.29 | 77167 | 85520 9 | 19:00.21 | 2:10.66 | 85521 | 95336 10 | 21:11.12 | 3:27.06 | 95337 | 110867 11 | 24:38.18 | 1:34.49 | 110868 | 117966 12 | 26:12.67 | 1:45.62 | 117967 | 125903 13 | 27:58.54 | 1:20.54 | 125904 | 131957 14 | 29:19.33 | 1:13.56 | 131958 | 137488 15 | 30:33.14 | 1:27.44 | 137489 | 144057
Track 1
Filename D:\Gaspard Augé & Mr. Oizo\Rubber [OST] (Promo)\01 Symph08.wav
Pre-gap length 0:00:02.00
Peak level 60.0 % Extraction speed 1.8 X Track quality 99.8 % Test CRC A31E3EC3 Copy CRC A31E3EC3 Track not present in AccurateRip database Copy OK
Track 2
Filename D:\Gaspard Augé & Mr. Oizo\Rubber [OST] (Promo)\02 Rubber.wav
Peak level 94.1 % Extraction speed 3.3 X Track quality 100.0 % Test CRC CFC20EFE Copy CRC CFC20EFE Track not present in AccurateRip database Copy OK
Track 3
Filename D:\Gaspard Augé & Mr. Oizo\Rubber [OST] (Promo)\03 Crows and Guts.wav
Peak level 87.9 % Extraction speed 3.1 X Track quality 100.0 % Test CRC A1644730 Copy CRC A1644730 Track not present in AccurateRip database Copy OK
Track 4
Filename D:\Gaspard Augé & Mr. Oizo\Rubber [OST] (Promo)\04 Tricycle Express.wav
Peak level 97.2 % Extraction speed 3.4 X Track quality 100.0 % Test CRC 2510DF23 Copy CRC 2510DF23 Track not present in AccurateRip database Copy OK
Track 5
Filename D:\Gaspard Augé & Mr. Oizo\Rubber [OST] (Promo)\05 Everything Is Fake.wav
Peak level 100.0 % Extraction speed 3.1 X Track quality 100.0 % Test CRC 3F549F3B Copy CRC 3F549F3B Track not present in AccurateRip database Copy OK
Track 6
Filename D:\Gaspard Augé & Mr. Oizo\Rubber [OST] (Promo)\06 Room 16.wav
Peak level 100.0 % Extraction speed 3.2 X Track quality 100.0 % Test CRC BE08EDB2 Copy CRC BE08EDB2 Track not present in AccurateRip database Copy OK
Track 7
Filename D:\Gaspard Augé & Mr. Oizo\Rubber [OST] (Promo)\07 Bellyball Road.wav
Peak level 100.0 % Extraction speed 2.9 X Track quality 100.0 % Test CRC E2306356 Copy CRC E2306356 Track not present in AccurateRip database Copy OK
Track 8
Filename D:\Gaspard Augé & Mr. Oizo\Rubber [OST] (Promo)\08 TV Slut.wav
Peak level 99.6 % Extraction speed 3.6 X Track quality 100.0 % Test CRC 7750A8B9 Copy CRC 7750A8B9 Track not present in AccurateRip database Copy OK
Track 9
Filename D:\Gaspard Augé & Mr. Oizo\Rubber [OST] (Promo)\09 No Reason.wav
Peak level 98.2 % Extraction speed 3.3 X Track quality 100.0 % Test CRC D09CF636 Copy CRC D09CF636 Track not present in AccurateRip database Copy OK
Track 10
Filename D:\Gaspard Augé & Mr. Oizo\Rubber [OST] (Promo)\10 Sheila.wav
Peak level 100.0 % Extraction speed 4.3 X Track quality 100.0 % Test CRC D8DF5AF0 Copy CRC D8DF5AF0 Track not present in AccurateRip database Copy OK
Track 11
Filename D:\Gaspard Augé & Mr. Oizo\Rubber [OST] (Promo)\11 Racket.wav
Peak level 100.0 % Extraction speed 3.4 X Track quality 100.0 % Test CRC C5B4EFB1 Copy CRC C5B4EFB1 Track not present in AccurateRip database Copy OK
Track 12
Filename D:\Gaspard Augé & Mr. Oizo\Rubber [OST] (Promo)\12 Le Caoutchouc.wav
Peak level 96.5 % Extraction speed 3.8 X Track quality 100.0 % Test CRC F1422E40 Copy CRC F1422E40 Track not present in AccurateRip database Copy OK
Track 13
Filename D:\Gaspard Augé & Mr. Oizo\Rubber [OST] (Promo)\13 Polocaust.wav
Peak level 100.0 % Extraction speed 3.0 X Track quality 100.0 % Test CRC 36FF09A1 Copy CRC 36FF09A1 Track not present in AccurateRip database Copy OK
Track 14
Filename D:\Gaspard Augé & Mr. Oizo\Rubber [OST] (Promo)\14 Dump.wav
Peak level 90.7 % Extraction speed 2.9 X Track quality 100.0 % Test CRC D9794264 Copy CRC D9794264 Track not present in AccurateRip database Copy OK
Track 15
Filename D:\Gaspard Augé & Mr. Oizo\Rubber [OST] (Promo)\15 Sunsetire.wav
Peak level 69.2 % Extraction speed 3.8 X Track quality 100.0 % Test CRC 68B1E5C9 Copy CRC 68B1E5C9 Track not present in AccurateRip database Copy OK
None of the tracks are present in the AccurateRip database
No errors occurred
End of status report
---- CUETools DB Plugin V2.1.4
[CTDB TOCID: to_jmyN5J42jCQrO2rzQMUBspKo-] disk not present in databaseSubmit result: to_jmyN5J42jCQrO2rzQMUBspKo- has been uploaded
==== Log checksum ED1D79A1FBD1E9961ACC18BD40F03B9B7BA9816FDFA06F178F367AC827978221 ====

CUE

REM GENRE SoundtrackREM DATE 2010REM DISCID BB07080EFILEREM COMMENT "ExactAudioCopy v1.0b3"PERFORMER "Mr Oizo & Gaspard Augй"TITLE "Rubber Soundtrack (Promo)"FILE "01 Symph08.wav" WAVE TRACK 01 AUDIO TITLE "Symph08" PERFORMER "Mr Oizo & Gaspard Augй" ISRC FR0NT1000510 INDEX 01 00:00:00FILE "02 Rubber.wav" WAVE TRACK 02 AUDIO TITLE "Rubber" PERFORMER "Mr Oizo & Gaspard Augй" ISRC FR0NT1000440 INDEX 01 00:00:00FILE "03 Crows and Guts.wav" WAVE TRACK 03 AUDIO TITLE "Crows and Guts" PERFORMER "Mr Oizo & Gaspard Augй" ISRC FR0NT1000530 INDEX 01 00:00:00FILE "04 Tricycle Express.wav" WAVE TRACK 04 AUDIO TITLE "Tricycle Express" PERFORMER "Mr Oizo & Gaspard Augй" ISRC FR0NT1000460 INDEX 01 00:00:00FILE "05 Everything Is Fake.wav" WAVE TRACK 05 AUDIO TITLE "Everything Is Fake" PERFORMER "Mr Oizo & Gaspard Augй" ISRC FR0NT1000540 INDEX 01 00:00:00FILE "06 Room 16.wav" WAVE TRACK 06 AUDIO TITLE "Room 16" PERFORMER "Mr Oizo & Gaspard Augй" ISRC FR0NT1000550 INDEX 01 00:00:00FILE "07 Bellyball Road.wav" WAVE TRACK 07 AUDIO TITLE "Bellyball Road" PERFORMER "Mr Oizo & Gaspard Augй" ISRC FR0NT1000520 INDEX 01 00:00:00FILE "08 TV Slut.wav" WAVE TRACK 08 AUDIO TITLE "TV Slut" PERFORMER "Mr Oizo & Gaspard Augй" ISRC FR0NT1000560 INDEX 01 00:00:00FILE "09 No Reason.wav" WAVE TRACK 09 AUDIO TITLE "No Reason" PERFORMER "Mr Oizo & Gaspard Augй" ISRC FR0NT1000570
INDEX 01 00:00:00FILE "10 Sheila.wav" WAVE TRACK 10 AUDIO TITLE "Sheila" PERFORMER "Mr Oizo & Gaspard Augй" ISRC FR0NT1000580 INDEX 01 00:00:00FILE "11 Racket.wav" WAVE TRACK 11 AUDIO TITLE "Racket" PERFORMER "Mr Oizo & Gaspard Augй" ISRC FR0NT1000590 INDEX 01 00:00:00FILE "12 Le Caoutchouc.wav" WAVE TRACK 12 AUDIO TITLE "Le Caoutchouc" PERFORMER "Mr Oizo & Gaspard Augй" ISRC FR0NT1000600 INDEX 01 00:00:00FILE "13 Polocaust.wav" WAVE TRACK 13 AUDIO TITLE "Polocaust" PERFORMER "Mr Oizo & Gaspard Augй" ISRC FR0NT1000470 INDEX 01 00:00:00FILE "14 Dump.wav" WAVE TRACK 14 AUDIO TITLE "Dump" PERFORMER "Mr Oizo & Gaspard Augй" ISRC FR0NT1000610 INDEX 01 00:00:00FILE "15 Sunsetire.wav" WAVE TRACK 15 AUDIO TITLE "Sunsetire" PERFORMER "Mr Oizo & Gaspard Augй" ISRC FR0NT1000620 INDEX 01 00:00:00
2011 - Stade 2 [BEC5161058]
Продолжительность: 32:25
01. Mr. Oizo - Introeil [0:56]
02. Mr. Oizo - Camelfuck [2:47]
03. Mr. Oizo - Douche Beat [3:18]
04. Mr. Oizo - Datsun [3:19]
05. Mr. Oizo - Ska [3:03]
06. Mr. Oizo - Edn [1:04]
07. Mr. Oizo - Cheeree [3:10]
08. Mr. Oizo - Oral Sax [2:05]
09. Mr. Oizo - France7 [3:39]
10. Mr. Oizo - Chiffon [1:54]
11. Mr. Oizo - Pompe [0:57]
12. Mr. Oizo - Stade2 [3:04]
13. Mr. Oizo - Druide [3:07]

log and sheetLog

Exact Audio Copy V1.0 beta 3 from 29. August 2011
EAC extraction logfile from 27. November 2011, 14:22
Mr. Oizo / Stade 2
Used drive : PLEXTOR CD-R PREMIUM Adapter: 5 ID: 0
Read mode : SecureUtilize accurate stream : YesDefeat audio cache : YesMake use of C2 pointers : No
Read offset correction : 30Overread into Lead-In and Lead-Out : YesFill up missing offset samples with silence : YesDelete leading and trailing silent blocks : NoNull samples used in CRC calculations : YesUsed interface : Native Win32 interface for Win NT & 2000Gap handling : Appended to previous track
Used output format : User Defined EncoderSelected bitrate : 1024 kBit/sQuality : HighAdd ID3 tag : NoCommand line compressor : C:\Program Files\Exact Audio Copy\Flac\flac.exeAdditional command line options : -8 -V -T "ARTIST=%artist%" -T "TITLE=%title%" -T "ALBUM=%albumtitle%" -T "DATE=%year%" -T "TRACKNUMBER=%tracknr%" -T "GENRE=%genre%" -T "PERFORMER=%albuminterpret%" -T "COMPOSER=%composer%" %haslyrics%--tag-from-file=LYRICS="%lyricsfile%"%haslyrics% -T "ALBUMARTIST=%albumartist%" -T "ALBUM ARTIST=%albumartist%" -T "DISCNUMBER=%cdnumber%" -T "TOTALDISCS=%totalcds%" -T "TOTALTRACKS=%numtracks%" -T "COMMENT=%comment%" %source% -o %dest%
TOC of the extracted CD
Track | Start | Length | Start sector | End sector --------------------------------------------------------- 1 | 0:00.00 | 0:55.71 | 0 | 4195 2 | 0:55.71 | 2:46.40 | 4196 | 16685 3 | 3:42.36 | 3:18.37 | 16686 | 31572 4 | 7:00.73 | 3:18.74 | 31573 | 46496 5 | 10:19.72 | 3:03.26 | 46497 | 60247 6 | 13:23.23 | 1:04.34 | 60248 | 65081 7 | 14:27.57 | 3:10.00 | 65082 | 79331 8 | 17:37.57 | 2:05.25 | 79332 | 88731 9 | 19:43.07 | 3:38.72 | 88732 | 105153 10 | 23:22.04 | 1:54.36 | 105154 | 113739 11 | 25:16.40 | 0:57.04 | 113740 | 118018 12 | 26:13.44 | 3:04.18 | 118019 | 131836 13 | 29:17.62 | 3:07.33 | 131837 | 145894
Track 1
Filename C:\EACRips\01 Introeil.wav
Pre-gap length 0:00:02.00
Peak level 96.8 % Extraction speed 7.2 X Track quality 100.0 % Test CRC 81C6145E Copy CRC 81C6145E Track not present in AccurateRip database Copy OK
Track 2
Filename C:\EACRips\02 Camelfuck.wav
Peak level 100.0 % Extraction speed 8.2 X Track quality 100.0 % Test CRC D5A8A711 Copy CRC D5A8A711 Track not present in AccurateRip database Copy OK
Track 3
Filename C:\EACRips\03 Douche Beat.wav
Pre-gap length 0:00:00.88
Peak level 99.1 % Extraction speed 9.0 X Track quality 100.0 % Test CRC B95DFD26 Copy CRC B95DFD26 Track not present in AccurateRip database Copy OK
Track 4
Filename C:\EACRips\04 Datsun.wav
Pre-gap length 0:00:01.08
Peak level 97.9 % Extraction speed 9.7 X Track quality 100.0 % Test CRC 79726457 Copy CRC 79726457 Track not present in AccurateRip database Copy OK
Track 5
Filename C:\EACRips\05 Ska.wav
Pre-gap length 0:00:00.76
Peak level 98.8 % Extraction speed 10.2 X Track quality 100.0 % Test CRC 0572FCC3 Copy CRC 0572FCC3 Track not present in AccurateRip database Copy OK
Track 6
Filename C:\EACRips\06 Edn.wav
Peak level 79.4 % Extraction speed 9.5 X Track quality 100.0 % Test CRC 2AE6BFE8 Copy CRC 2AE6BFE8 Track not present in AccurateRip database Copy OK
Track 7
Filename C:\EACRips\07 Cheeree.wav
Peak level 98.8 % Extraction speed 10.9 X Track quality 100.0 % Test CRC 9D7E35D3 Copy CRC 9D7E35D3 Track not present in AccurateRip database Copy OK
Track 8
Filename C:\EACRips\08 Oral Sax.wav
Pre-gap length 0:00:00.64
Peak level 98.6 % Extraction speed 11.0 X Track quality 100.0 % Test CRC 00D1D03E Copy CRC 00D1D03E Track not present in AccurateRip database Copy OK
Track 9
Filename C:\EACRips\09 France7.wav
Pre-gap length 0:00:00.44
Peak level 100.0 % Extraction speed 12.0 X Track quality 100.0 % Test CRC 60AA62BA Copy CRC 60AA62BA Track not present in AccurateRip database Copy OK
Track 10
Filename C:\EACRips\10 Chiffon.wav
Pre-gap length 0:00:00.88
Peak level 97.9 % Extraction speed 11.7 X Track quality 100.0 % Test CRC 8D0AE638 Copy CRC 8D0AE638 Track not present in AccurateRip database Copy OK
Track 11
Filename C:\EACRips\11 Pompe.wav
Pre-gap length 0:00:00.08
Peak level 83.4 % Extraction speed 10.6 X Track quality 100.0 % Test CRC 4789896C Copy CRC 4789896C Track not present in AccurateRip database Copy OK
Track 12
Filename C:\EACRips\12 Stade2.wav
Peak level 98.3 % Extraction speed 10.1 X Track quality 99.9 % Test CRC F6C8BF48 Copy CRC F6C8BF48 Track not present in AccurateRip database Copy OK
Track 13
Filename C:\EACRips\13 Druide.wav
Pre-gap length 0:00:01.44
Peak level 98.6 % Extraction speed 13.9 X Track quality 100.0 % Test CRC 013A3E3D Copy CRC 013A3E3D Track not present in AccurateRip database Copy OK
None of the tracks are present in the AccurateRip database
No errors occurred
End of status report
---- CUETools DB Plugin V2.1.3
[CTDB TOCID: TpvM6Ip0fLixW9bopKnLZIBpeIQ-] disk not present in database, Submit result: TpvM6Ip0fLixW9bopKnLZIBpeIQ- has been uploaded
==== Log checksum 2688511C22DB43AE44289E79776706859E4CC70BF9C00025FC095CF65A4E7E7B ====

CUE

REM GENRE ElectronicREM DATE 2011REM DISCID A907990DREM COMMENT "ExactAudioCopy v1.0b3"CATALOG 2535161058000PERFORMER "Mr. Oizo"TITLE "Stade 2"FILE "01 Introeil.wav" WAVE TRACK 01 AUDIO TITLE "Introeil" PERFORMER "Mr. Oizo" ISRC FR0NT1101270 INDEX 01 00:00:00FILE "02 Camelfuck.wav" WAVE TRACK 02 AUDIO TITLE "Camelfuck" PERFORMER "Mr. Oizo" ISRC FR0NT1101280 INDEX 01 00:00:00 TRACK 03 AUDIO TITLE "Douche Beat" PERFORMER "Mr. Oizo" ISRC FR0NT1101290 INDEX 00 02:45:49FILE "03 Douche Beat.wav" WAVE INDEX 01 00:00:00 TRACK 04 AUDIO TITLE "Datsun" PERFORMER "Mr. Oizo" ISRC FR0NT1101300 INDEX 00 03:17:31FILE "04 Datsun.wav" WAVE INDEX 01 00:00:00 TRACK 05 AUDIO TITLE "Ska" PERFORMER "Mr. Oizo" ISRC FR0NT1101310 INDEX 00 03:18:17FILE "05 Ska.wav" WAVE INDEX 01 00:00:00FILE "06 Edn.wav" WAVE TRACK 06 AUDIO TITLE "Edn" PERFORMER "Mr. Oizo" ISRC FR0NT1101320 INDEX 01 00:00:00FILE "07 Cheeree.wav" WAVE TRACK 07 AUDIO TITLE "Cheeree" PERFORMER "Mr. Oizo" ISRC FR0NT1101330 INDEX 01 00:00:00 TRACK 08 AUDIO TITLE "Oral Sax" PERFORMER "Mr. Oizo" ISRC FR0NT1101340 INDEX 00 03:09:27FILE "08 Oral Sax.wav" WAVE INDEX 01 00:00:00 TRACK 09 AUDIO TITLE "France7" PERFORMER "Mr. Oizo" ISRC FR0NT1101350 INDEX 00 02:04:67FILE "09 France7.wav" WAVE INDEX 01 00:00:00 TRACK 10 AUDIO TITLE "Chiffon" PERFORMER "Mr. Oizo" ISRC FR0NT1101360 INDEX 00 03:38:06FILE "10 Chiffon.wav" WAVE INDEX 01 00:00:00 TRACK 11 AUDIO TITLE "Pompe" PERFORMER "Mr. Oizo" ISRC FR0NT1101370 INDEX 00 01:54:30FILE "11 Pompe.wav" WAVE INDEX 01 00:00:00FILE "12 Stade2.wav" WAVE TRACK 12 AUDIO TITLE "Stade2" PERFORMER "Mr. Oizo" ISRC FR0NT1101380 INDEX 01 00:00:00 TRACK 13 AUDIO TITLE "Druide" PERFORMER "Mr. Oizo" ISRC FR0NT1101390 INDEX 00 03:02:60FILE "13 Druide.wav" WAVE INDEX 01 00:00:00

2012 - Mr. Oizo & Tahiti Boy - Wrong [BEC0523]

[img=right][/img]

Продолжительность: 31:28
1. Tahiti Boy & Mr. Oizo - Wrong [2:27]
2. Tahiti Boy & Mr. Oizo - Ronnie [2:14]
3. Tahiti Boy & Mr. Oizo - Pizza Note [2:34]
4. Tahiti Boy & Mr. Oizo - Mind Link 1 [2:18]
5. Tahiti Boy & Mr. Oizo - Mind Link 2 [3:04]
6. Tahiti Boy & Mr. Oizo - Ringtone [1:07]
7. Tahiti Boy & The Palmtree Family - Solution [3:43]
8. Tahiti Boy & Mr. Oizo - Le Detective [1:39]
9. Tahiti Boy & Mr. Oizo - Turd Vision [2:26]
10. Tahiti Boy & Mr. Oizo - Phase 7 [3:19]
11. Tahiti Boy & Mr. Oizo - Palmtree [1:31]
12. Tahiti Boy & The Palmtree Family - Resolution [3:55]
13. Tahiti Boy & Mr. Oizo - Master Chang [1:11]
http://bleep.com/release/38482-tahiti-boy-mr-oizo-wrong-original-motion-picture-soundtrack

auCDtect

-----------------------
DON'T MODIFY THIS FILE
-----------------------
PERFORMER: auCDtect Task Manager, ver. 1.6.0 RC1 build 1.6.0.1Copyright (c) 2008-2010 y-soft. All rights reservedhttp://y-soft.org
ANALYZER: auCDtect: CD records authenticity detector, version 0.8.2Copyright (c) 2004 Oleg Berngardt. All rights reserved.Copyright (c) 2004 Alexander Djourik. All rights reserved.
FILE: 13 - Tahiti Boy & Mr. Oizo - Master Chang.flac Size: 5194876 Hash: 54C4175601C46EE26C6D0765E479F5EF Accuracy: -m0 Conclusion: CDDA 100% Signature: B34E09DE60573E4BA2DEC4C46B391178D7C716E4FILE: 12 - Tahiti Boy & The Palmtree Family - Resolution.flac Size: 26908469 Hash: 189A34F7B4E5A49B7834039A82DB4D78 Accuracy: -m0 Conclusion: CDDA 42% Signature: 0011BB4D7E62AA893832B86B2B3AA021DB4E62B0FILE: 11 - Tahiti Boy & Mr. Oizo - Palmtree.flac Size: 6465996 Hash: 89332BD25E9CDE16511E90FCBF67A1F1 Accuracy: -m0 Conclusion: CDDA 100% Signature: 6BBD2A3A563B59527D110D2A9906E12D37F9B58EFILE: 10 - Tahiti Boy & Mr. Oizo - Phase 7.flac Size: 12150811 Hash: 2422895674C7833DE0AC0470BB179346 Accuracy: -m0 Conclusion: CDDA 99% Signature: 4BF7D3FF4524904ADBCE9E09D1C166DC76377CEBFILE: 09 - Tahiti Boy & Mr. Oizo - Turd Vision.flac Size: 17237237 Hash: 9C1A91C85B64D14CE0E482F16D21509F Accuracy: -m0 Conclusion: CDDA 100% Signature: D2104DEF5C083DB7D8166C155D6933E1573B3B52FILE: 08 - Tahiti Boy & Mr. Oizo - Le Detective.flac Size: 4607135 Hash: C03462C250BF296BC5FF2A4EFDDC1EF9 Accuracy: -m0 Conclusion: CDDA 62% Signature: 3B49C6FFBCF7602B0118FDFFA990D52E8BDF0C80FILE: 07 - Tahiti Boy & The Palmtree Family - Solution.flac Size: 27254241 Hash: 763FB902C88ED059EE42ED7F36A50C2F Accuracy: -m0 Conclusion: CDDA 99% Signature: EE47AD264F8674B149E63B7D5324D4DCB1A5B4B3FILE: 06 - Tahiti Boy & Mr. Oizo - Ringtone.flac Size: 5065074 Hash: AD46F1605FB2B350B19CA7BF78AAA1AE Accuracy: -m0 Conclusion: CDDA 100% Signature: 5D2D9CEBA48E66D2AA70083CC7C12E0D167F0366FILE: 05 - Tahiti Boy & Mr. Oizo - Mind Link 2.flac Size: 22774716 Hash: F82A7024989EAAB52B199BA2CF63D8F0 Accuracy: -m0 Conclusion: CDDA 100% Signature: 12CD6654F3B898D601B41483C787023D88120E87FILE: 04 - Tahiti Boy & Mr. Oizo - Mind Link 1.flac Size: 10889191 Hash: 1892C1D65CF5EB78358EA82DCFBB6CDD Accuracy: -m0 Conclusion: CDDA 100% Signature: 9D6D14D372EADB0991205C081B9BDF5A30F08089FILE: 03 - Tahiti Boy & Mr. Oizo - Pizza Note.flac Size: 13707513 Hash: 939FF940FBDC29F0306F866B2C2442F4 Accuracy: -m0 Conclusion: CDDA 100% Signature: 31B1E4168242A41BFD2ECAECAA0B6F3230058B52FILE: 02 - Tahiti Boy & Mr. Oizo - Ronnie.flac Size: 15753875 Hash: 5B7966C670B12805066E368844F66414 Accuracy: -m0 Conclusion: CDDA 99% Signature: 5CAF703774EB00DD5B200D382CF439456A6EBCE3FILE: 01 - Tahiti Boy & Mr. Oizo - Wrong.flac Size: 9445991 Hash: E4C75141CE14301E7AF1309D8958D5F5 Accuracy: -m0 Conclusion: CDDA 94% Signature: BD0B87153F4A12BCE463667204CA0BF2FE4E21FE
2015 - The Church [BFCD053]
Продолжительность: 29:52
1. Mr. Oizo - Bear Biscuit [2:43]
2. Mr. Oizo - Ham [3:09]
3. Mr. Oizo - Destop [2:10]
4. Mr. Oizo - Dry Run (feat. Bart B More) [3:26]
5. Mr. Oizo - Mass Doom [2:32]
6. Mr. Oizo - Machyne [3:09]
7. Mr. Oizo - iSoap [4:03]
8. Mr. Oizo - Torero [3:58]
9. Mr. Oizo - Memorex [1:08]
10. Mr. Oizo - The Church [3:34]

log and sheetLog

Exact Audio Copy V1.1 from 23. June 2015
EAC extraction logfile from 1. December 2015, 17:44
Mr. Oizo / The Church
Used drive : ASUS BW-12B1ST a Adapter: 1 ID: 0
Read mode : SecureUtilize accurate stream : YesDefeat audio cache : YesMake use of C2 pointers : No
Read offset correction : 6Overread into Lead-In and Lead-Out : NoFill up missing offset samples with silence : YesDelete leading and trailing silent blocks : NoNull samples used in CRC calculations : YesUsed interface : Native Win32 interface for Win NT & 2000Gap handling : Appended to previous track
Used output format : User Defined EncoderSelected bitrate : 1024 kBit/sQuality : HighAdd ID3 tag : NoCommand line compressor : C:\Program Files (x86)\Exact Audio Copy\Flac\flac.exeAdditional command line options : -8 -V -T "ARTIST=%artist%" -T "TITLE=%title%" -T "ALBUM=%albumtitle%" -T "DATE=%year%" -T "TRACKNUMBER=%tracknr1%" -T "GENRE=%genre%" -T "PERFORMER=%albuminterpret%" -T "COMPOSER=%composer%" %haslyrics%--tag-from-file=LYRICS="%lyricsfile%"%haslyrics% -T "ALBUMARTIST=%albumartist%" -T "DISCNUMBER=%cdnumber%" -T "COMMENT=%comment%" %source% -o %dest%
TOC of the extracted CD
Track | Start | Length | Start sector | End sector --------------------------------------------------------- 1 | 0:00.00 | 2:42.43 | 0 | 12192 2 | 2:42.43 | 3:09.36 | 12193 | 26403 3 | 5:52.04 | 2:10.19 | 26404 | 36172 4 | 8:02.23 | 3:25.66 | 36173 | 51613 5 | 11:28.14 | 2:32.30 | 51614 | 63043 6 | 14:00.44 | 3:08.56 | 63044 | 77199 7 | 17:09.25 | 4:02.55 | 77200 | 95404 8 | 21:12.05 | 3:58.21 | 95405 | 113275 9 | 25:10.26 | 1:08.18 | 113276 | 118393 10 | 26:18.44 | 3:33.51 | 118394 | 134419
Track 1
Filename C:\EAC Rips\Mr. Oizo - The Church (2015) [FLAC]\01 Bear Biscuit.wav
Pre-gap length 0:00:02.00
Peak level 99.7 % Extraction speed 2.3 X Track quality 100.0 % Test CRC EC46F53B Copy CRC EC46F53B Accurately ripped (confidence 2) [BD9445BA] (AR v2) Copy OK
Track 2
Filename C:\EAC Rips\Mr. Oizo - The Church (2015) [FLAC]\02 Ham.wav
Peak level 99.7 % Extraction speed 1.0 X Track quality 100.0 % Test CRC 10007E5F Copy CRC 10007E5F Accurately ripped (confidence 2) [9C3B4FBF] (AR v2) Copy OK
Track 3
Filename C:\EAC Rips\Mr. Oizo - The Church (2015) [FLAC]\03 Destop.wav
Peak level 99.7 % Extraction speed 1.0 X Track quality 100.0 % Test CRC E4E4816F Copy CRC E4E4816F Accurately ripped (confidence 2) [2D296CC2] (AR v2) Copy OK
Track 4
Filename C:\EAC Rips\Mr. Oizo - The Church (2015) [FLAC]\04 Dry Run (feat. Bart B More).wav
Peak level 99.7 % Extraction speed 1.2 X Track quality 100.0 % Test CRC 05CEC4F1 Copy CRC 05CEC4F1 Accurately ripped (confidence 2) [F91206F9] (AR v2) Copy OK
Track 5
Filename C:\EAC Rips\Mr. Oizo - The Church (2015) [FLAC]\05 Mass Doom.wav
Peak level 99.7 % Extraction speed 1.0 X Track quality 99.9 % Test CRC 6C2AB836 Copy CRC 6C2AB836 Accurately ripped (confidence 2) [0D5CD5FB] (AR v2) Copy OK
Track 6
Filename C:\EAC Rips\Mr. Oizo - The Church (2015) [FLAC]\06 Machyne.wav
Peak level 99.7 % Extraction speed 1.3 X Track quality 100.0 % Test CRC 93DD7371 Copy CRC 93DD7371 Accurately ripped (confidence 2) [E2B47588] (AR v2) Copy OK
Track 7
Filename C:\EAC Rips\Mr. Oizo - The Church (2015) [FLAC]\07 iSoap.wav
Peak level 99.7 % Extraction speed 1.4 X Track quality 100.0 % Test CRC F6972677 Copy CRC F6972677 Accurately ripped (confidence 2) [EA78AD4A] (AR v2) Copy OK
Track 8
Filename C:\EAC Rips\Mr. Oizo - The Church (2015) [FLAC]\08 Torero.wav
Peak level 99.7 % Extraction speed 1.5 X Track quality 100.0 % Test CRC 5CD3492B Copy CRC 5CD3492B Accurately ripped (confidence 2) [FC411D7E] (AR v2) Copy OK
Track 9
Filename C:\EAC Rips\Mr. Oizo - The Church (2015) [FLAC]\09 Memorex.wav
Peak level 99.7 % Extraction speed 1.2 X Track quality 100.0 % Test CRC EC294BE9 Copy CRC EC294BE9 Accurately ripped (confidence 2) [8F7CC22B] (AR v2) Copy OK
Track 10
Filename C:\EAC Rips\Mr. Oizo - The Church (2015) [FLAC]\10 The Church.wav
Peak level 99.7 % Extraction speed 1.6 X Track quality 100.0 % Test CRC EA27E6CD Copy CRC EA27E6CD Accurately ripped (confidence 2) [C925B516] (AR v2) Copy OK
All tracks accurately ripped
No errors occurred
End of status report
---- CUETools DB Plugin V2.1.6
[CTDB TOCID: 3pNwrt26Y6_TjJQ3c_wKm.reMwc-] foundSubmit result: 3pNwrt26Y6_TjJQ3c_wKm.reMwc- has been confirmedTrack | CTDB Status 1 | (8/8) Accurately ripped 2 | (8/8) Accurately ripped 3 | (8/8) Accurately ripped 4 | (8/8) Accurately ripped 5 | (8/8) Accurately ripped 6 | (8/8) Accurately ripped 7 | (8/8) Accurately ripped 8 | (8/8) Accurately ripped 9 | (8/8) Accurately ripped 10 | (8/8) Accurately ripped
==== Log checksum 76C5E19DCE832701ADE4E80892FD23F6F65C31EE1093B080561CEE55B7E45384 ====

CUE

REM GENRE "Electro House"REM DATE 2015REM DISCID 7007000AREM COMMENT "ExactAudioCopy v1.1"CATALOG 0669158527106PERFORMER "Mr. Oizo"TITLE "The Church"FILE "01 Bear Biscuit.wav" WAVE TRACK 01 AUDIO TITLE "Bear Biscuit" PERFORMER "Mr. Oizo" ISRC US25X1086771 INDEX 01 00:00:00FILE "02 Ham.wav" WAVE TRACK 02 AUDIO TITLE "Ham" PERFORMER "Mr. Oizo" ISRC US25X1086772 INDEX 01 00:00:00FILE "03 Destop.wav" WAVE TRACK 03 AUDIO TITLE "Destop" PERFORMER "Mr. Oizo" ISRC US25X1086773 INDEX 01 00:00:00FILE "04 Dry Run (feat. Bart B More).wav" WAVE TRACK 04 AUDIO TITLE "Dry Run (feat. Bart B More)" PERFORMER "Mr. Oizo" ISRC US25X1086774 INDEX 01 00:00:00FILE "05 Mass Doom.wav" WAVE TRACK 05 AUDIO TITLE "Mass Doom" PERFORMER "Mr. Oizo" ISRC US25X1086775 INDEX 01 00:00:00FILE "06 Machyne.wav" WAVE TRACK 06 AUDIO TITLE "Machyne" PERFORMER "Mr. Oizo" ISRC US25X1086776 INDEX 01 00:00:00FILE "07 iSoap.wav" WAVE TRACK 07 AUDIO TITLE "iSoap" PERFORMER "Mr. Oizo" ISRC US25X1086777 INDEX 01 00:00:00FILE "08 Torero.wav" WAVE TRACK 08 AUDIO TITLE "Torero" PERFORMER "Mr. Oizo" ISRC US25X1086778 INDEX 01 00:00:00FILE "09 Memorex.wav" WAVE TRACK 09 AUDIO TITLE "Memorex" PERFORMER "Mr. Oizo" ISRC US25X1086779 INDEX 01 00:00:00FILE "10 The Church.wav" WAVE TRACK 10 AUDIO TITLE "The Church" PERFORMER "Mr. Oizo" ISRC US25X1086780 INDEX 01 00:00:00
2016 - All Wet [506042 1566160]
Продолжительность: 34:31
01. Mr. Oizo - Ok Then [2:02]
02. Mr. Oizo - Sea Horses (Featuring Tetanos) [2:37]
03. Mr. Oizo - Freezing Out (Featuring Peaches) [2:44]
04. Mr. Oizo - Oiseaux [1:16]
05. Mr. Oizo - Ruhe (Featuring Boys Noize) [2:40]
06. Mr. Oizo - No Tony (Featuring Phra) [1:28]
07. Mr. Oizo - End Of The World (Featuring Skrillex) [3:39]
08. Mr. Oizo - The One You Buy [1:13]
09. Mr. Oizo - All Wet (Featuring Siriusmo) [3:12]
10. Mr. Oizo - Chairs (Featuring Mocky) [2:32]
11. Mr. Oizo - Your Liver [2:04]
12. Mr. Oizo - Hand In The Fire (Featuring Charli XCX) [3:11]
13. Mr. Oizo - Low In [2:03]
14. Mr. Oizo - Goulag [2:43]
15. Mr. Oizo - Useless [1:08]

log and sheetLog

Exact Audio Copy V1.3 from 2. September 2016
EAC extraction logfile from 14. January 2017, 21:27
Mr. Oizo / All Wet
Used drive : HL-DT-STBD-RE BH16NS40 Adapter: 1 ID: 0
Read mode : SecureUtilize accurate stream : YesDefeat audio cache : YesMake use of C2 pointers : No
Read offset correction : 6Overread into Lead-In and Lead-Out : NoFill up missing offset samples with silence : YesDelete leading and trailing silent blocks : NoNull samples used in CRC calculations : YesUsed interface : Native Win32 interface for Win NT & 2000Gap handling : Appended to previous track
Used output format : User Defined EncoderSelected bitrate : 1024 kBit/sQuality : HighAdd ID3 tag : NoCommand line compressor : C:\Program Files (x86)\Exact Audio Copy\Flac\flac.exeAdditional command line options : -8 -V -T "ARTIST=%artist%" -T "TITLE=%title%" -T "ALBUM=%albumtitle%" -T "DATE=%year%" -T "TRACKNUMBER=%tracknr%" -T "GENRE=%genre%" -T "PERFORMER=%albuminterpret%" -T "COMPOSER=%composer%" %haslyrics%--tag-from-file=LYRICS="%lyricsfile%"%haslyrics% -T "ALBUMARTIST=%albumartist%" -T "DISCNUMBER=%cdnumber%" -T "TOTALDISCS=%totalcds%" -T "TOTALTRACKS=%numtracks%" -T "COMMENT=%comment%" %source% -o %dest%
TOC of the extracted CD
Track | Start | Length | Start sector | End sector --------------------------------------------------------- 1 | 0:00.00 | 2:02.22 | 0 | 9171 2 | 2:02.22 | 2:36.54 | 9172 | 20925 3 | 4:39.01 | 2:44.00 | 20926 | 33225 4 | 7:23.01 | 1:15.49 | 33226 | 38899 5 | 8:38.50 | 2:39.42 | 38900 | 50866 6 | 11:18.17 | 1:28.11 | 50867 | 57477 7 | 12:46.28 | 3:38.40 | 57478 | 73867 8 | 16:24.68 | 1:13.26 | 73868 | 79368 9 | 17:38.19 | 3:11.71 | 79369 | 93764 10 | 20:50.15 | 2:32.15 | 93765 | 105179 11 | 23:22.30 | 2:04.18 | 105180 | 114497 12 | 25:26.48 | 3:11.04 | 114498 | 128826 13 | 28:37.52 | 2:02.70 | 128827 | 138046 14 | 30:40.47 | 2:42.59 | 138047 | 150255 15 | 33:23.31 | 1:07.72 | 150256 | 155352
Track 1
Filename D:\Music\Mr. Oizo - All Wet (2016) [FLAC]\01. Ok Then.wav
Pre-gap length 0:00:02.00
Peak level 96.6 % Extraction speed 1.7 X Track quality 100.0 % Test CRC F11839E9 Copy CRC F11839E9 Accurately ripped (confidence 2) [A7A589FA] (AR v2) Copy OK
Track 2
Filename D:\Music\Mr. Oizo - All Wet (2016) [FLAC]\02. Sea Horses (Featuring Tetanos).wav
Peak level 96.6 % Extraction speed 0.8 X Track quality 99.9 % Test CRC 69174D04 Copy CRC 69174D04 Accurately ripped (confidence 2) [72D7DBFE] (AR v2) Copy OK
Track 3
Filename D:\Music\Mr. Oizo - All Wet (2016) [FLAC]\03. Freezing Out (Featuring Peaches).wav
Peak level 96.6 % Extraction speed 0.9 X Track quality 99.9 % Test CRC 575FCB6A Copy CRC 575FCB6A Accurately ripped (confidence 2) [4F3387EA] (AR v2) Copy OK
Track 4
Filename D:\Music\Mr. Oizo - All Wet (2016) [FLAC]\04. Oiseaux.wav
Peak level 96.6 % Extraction speed 0.6 X Track quality 99.8 % Test CRC 42192E78 Copy CRC 42192E78 Accurately ripped (confidence 2) [E1F85313] (AR v2) Copy OK
Track 5
Filename D:\Music\Mr. Oizo - All Wet (2016) [FLAC]\05. Ruhe (Featuring Boys Noize).wav
Peak level 96.6 % Extraction speed 1.2 X Track quality 100.0 % Test CRC 78A07BA6 Copy CRC 78A07BA6 Accurately ripped (confidence 2) [0358E9DD] (AR v2) Copy OK
Track 6
Filename D:\Music\Mr. Oizo - All Wet (2016) [FLAC]\06. No Tony (Featuring Phra).wav
Peak level 96.6 % Extraction speed 1.0 X Track quality 100.0 % Test CRC B135BA6A Copy CRC B135BA6A Accurately ripped (confidence 2) [9D903319] (AR v2) Copy OK
Track 7
Filename D:\Music\Mr. Oizo - All Wet (2016) [FLAC]\07. End Of The World (Featuring Skrillex).wav
Peak level 96.6 % Extraction speed 1.3 X Track quality 100.0 % Test CRC C765EADC Copy CRC C765EADC Accurately ripped (confidence 2) [D0054F36] (AR v2) Copy OK
Track 8
Filename D:\Music\Mr. Oizo - All Wet (2016) [FLAC]\08. The One You Buy.wav
Peak level 96.6 % Extraction speed 0.9 X Track quality 99.8 % Test CRC E2C1165C Copy CRC E2C1165C Accurately ripped (confidence 2) [0CA2CA0B] (AR v2) Copy OK
Track 9
Filename D:\Music\Mr. Oizo - All Wet (2016) [FLAC]\09. All Wet (Featuring Siriusmo).wav
Peak level 96.6 % Extraction speed 1.4 X Track quality 100.0 % Test CRC 8D7AE705 Copy CRC 8D7AE705 Accurately ripped (confidence 2) [A7A3B4FA] (AR v2) Copy OK
Track 10
Filename D:\Music\Mr. Oizo - All Wet (2016) [FLAC]\10. Chairs (Featuring Mocky).wav
Peak level 96.6 % Extraction speed 1.4 X Track quality 100.0 % Test CRC C371811B Copy CRC C371811B Accurately ripped (confidence 2) [3C7D4E64] (AR v2) Copy OK
Track 11
Filename D:\Music\Mr. Oizo - All Wet (2016) [FLAC]\11. Your Liver.wav
Peak level 96.6 % Extraction speed 1.4 X Track quality 100.0 % Test CRC D64AEAA8 Copy CRC D64AEAA8 Accurately ripped (confidence 2) [749FB87C] (AR v2) Copy OK
Track 12
Filename D:\Music\Mr. Oizo - All Wet (2016) [FLAC]\12. Hand In The Fire (Featuring Charli XCX).wav
Peak level 96.6 % Extraction speed 1.6 X Track quality 100.0 % Test CRC A19DDBE9 Copy CRC A19DDBE9 Accurately ripped (confidence 2) [A5129D19] (AR v2) Copy OK
Track 13
Filename D:\Music\Mr. Oizo - All Wet (2016) [FLAC]\13. Low In.wav
Peak level 96.6 % Extraction speed 1.5 X Track quality 100.0 % Test CRC 69588F4F Copy CRC 69588F4F Accurately ripped (confidence 2) [F4A2033C] (AR v2) Copy OK
Track 14
Filename D:\Music\Mr. Oizo - All Wet (2016) [FLAC]\14. Goulag.wav
Peak level 96.6 % Extraction speed 1.6 X Track quality 100.0 % Test CRC B9FB1F26 Copy CRC B9FB1F26 Accurately ripped (confidence 2) [5B596AC2] (AR v2) Copy OK
Track 15
Filename D:\Music\Mr. Oizo - All Wet (2016) [FLAC]\15. Useless.wav
Peak level 96.6 % Extraction speed 1.2 X Track quality 100.0 % Test CRC DAA48E2B Copy CRC DAA48E2B Accurately ripped (confidence 2) [76C6D025] (AR v2) Copy OK
All tracks accurately ripped
No errors occurred
End of status report
---- CUETools DB Plugin V2.1.6
[CTDB TOCID: nGrgw62yZ2qWcBCN5jxzfZXgHrY-] foundSubmit result: nGrgw62yZ2qWcBCN5jxzfZXgHrY- has been confirmedTrack | CTDB Status 1 | (6/6) Accurately ripped 2 | (6/6) Accurately ripped 3 | (6/6) Accurately ripped 4 | (6/6) Accurately ripped 5 | (6/6) Accurately ripped 6 | (6/6) Accurately ripped 7 | (6/6) Accurately ripped 8 | (6/6) Accurately ripped 9 | (6/6) Accurately ripped 10 | (6/6) Accurately ripped 11 | (6/6) Accurately ripped 12 | (6/6) Accurately ripped 13 | (6/6) Accurately ripped 14 | (6/6) Accurately ripped 15 | (6/6) Accurately ripped
==== Log checksum 4F1B707B9DEC96DE79A0ADA615801113C0F005FACCD3777BE19FEEB8F0010C65 ====

CUE

REM GENRE ElectronicREM DATE 2016REM DISCID B408170FREM COMMENT "ExactAudioCopy v1.3"PERFORMER "Mr. Oizo"TITLE "All Wet"REM COMPOSER ""FILE "01. Ok Then.wav" WAVE TRACK 01 AUDIO TITLE "Ok Then" PERFORMER "Mr. Oizo" REM COMPOSER "" ISRC FR0NT1602200 INDEX 01 00:00:00FILE "02. Sea Horses (Featuring Tetanos).wav" WAVE TRACK 02 AUDIO TITLE "Sea Horses (Featuring Tetanos)" PERFORMER "Mr. Oizo" REM COMPOSER "" ISRC FR0NT1602210 INDEX 01 00:00:00FILE "03. Freezing Out (Featuring Peaches).wav" WAVE TRACK 03 AUDIO TITLE "Freezing Out (Featuring Peaches)" PERFORMER "Mr. Oizo" REM COMPOSER "" ISRC FR0NT1602220 INDEX 01 00:00:00FILE "04. Oiseaux.wav" WAVE TRACK 04 AUDIO TITLE "Oiseaux" PERFORMER "Mr. Oizo" REM COMPOSER "" ISRC FR0NT1602230 INDEX 01 00:00:00FILE "05. Ruhe (Featuring Boys Noize).wav" WAVE TRACK 05 AUDIO TITLE "Ruhe (Featuring Boys Noize)" PERFORMER "Mr. Oizo" REM COMPOSER "" ISRC FR0NT1602240 INDEX 01 00:00:00FILE "06. No Tony (Featuring Phra).wav" WAVE TRACK 06 AUDIO TITLE "No Tony (Featuring Phra)" PERFORMER "Mr. Oizo" REM COMPOSER "" ISRC FR0NT1602250 INDEX 01 00:00:00FILE "07. End Of The World (Featuring Skrillex).wav" WAVE TRACK 07 AUDIO TITLE "End Of The World (Featuring Skrillex)" PERFORMER "Mr. Oizo" REM COMPOSER "" ISRC FR0NT1602250 INDEX 01 00:00:00FILE "08. The One You Buy.wav" WAVE TRACK 08 AUDIO TITLE "The One You Buy" PERFORMER "Mr. Oizo" REM COMPOSER "" ISRC FR0NT1602270 INDEX 01 00:00:00FILE "09. All Wet (Featuring Siriusmo).wav" WAVE TRACK 09 AUDIO TITLE "All Wet (Featuring Siriusmo)" PERFORMER "Mr. Oizo" REM COMPOSER "" ISRC FR0NT1602280 INDEX 01 00:00:00FILE "10. Chairs (Featuring Mocky).wav" WAVE TRACK 10 AUDIO TITLE "Chairs (Featuring Mocky)" PERFORMER "Mr. Oizo" REM COMPOSER "" ISRC FR0NT1602290 INDEX 01 00:00:00FILE "11. Your Liver.wav" WAVE TRACK 11 AUDIO TITLE "Your Liver" PERFORMER "Mr. Oizo" REM COMPOSER "" ISRC FR0NT1602300 INDEX 01 00:00:00FILE "12. Hand In The Fire (Featuring Charli XCX).wav" WAVE TRACK 12 AUDIO TITLE "Hand In The Fire (Featuring Charli XCX)" PERFORMER "Mr. Oizo" REM COMPOSER "" ISRC FR0NT1602310 INDEX 01 00:00:00FILE "13. Low In.wav" WAVE TRACK 13 AUDIO TITLE "Low In" PERFORMER "Mr. Oizo" REM COMPOSER "" ISRC FR0NT1602320 INDEX 01 00:00:00FILE "14. Goulag.wav" WAVE TRACK 14 AUDIO TITLE "Goulag" PERFORMER "Mr. Oizo" REM COMPOSER "" ISRC FR0NT1602330 INDEX 01 00:00:00FILE "15. Useless.wav" WAVE TRACK 15 AUDIO TITLE "Useless" PERFORMER "Mr. Oizo" REM COMPOSER "" ISRC FR0NT1602330 INDEX 01 00:00:00
_______
Покрышка / Шина / Rubber (Квентин Дюпе / Quentin Dupieux) [2010, Франция, США, ужасы, фантастика, драма, комедия, BDRemux 1080p] VO (zamez) + original eng
(Dubstep, Techno, Abstract, Experimantal) Mr. Oizo - 4 Vinyls (Flat Beat, Nazis,Transexual / Patrick122, Positif), 1999-2008, FLAC (tracks), lossless
(Electro, Experimental) [24bit / 96kHz] Mr. Oizo – Analog Worms Attack - 1999, FLAC (tracks)


[islamvillage.com]_t_2814981.torrent
Торрент: Зарегистрирован ·  [ 2019-01-07 11:59 ] ·  9698193ee7bdec2eb6fdd1bfba8bf14419019235

51 KB

Статус: проверено
Скачан: 0 раз
Размер: 4.07 GB
Оценка: 
(Голосов: 0)
Сказали спасибо: 0  Спасибо
Похожие темы
[Профиль]    [ЛС]
Показать сообщения:    
Ответить на тему

Текущее время: Сегодня 22:32

Часовой пояс: GMT + 7



Вы не можете начинать темы
Вы не можете отвечать на сообщения
Вы не можете редактировать свои сообщения
Вы не можете удалять свои сообщения
Вы не можете голосовать в опросах
Вы не можете прикреплять файлы к сообщениям
Вы можете скачивать файлы


Martech products | 1 Rolle Gütermann Allesnäher Nähgarn Toldi Garn - 500m freie Farbwahl | The Rolling Girls