Пони с перебитым крылом / Пегас: Пони со сломанным крылом / Pegasus: Pony with a Broken Wing (Джорджо Серафини / Giorgio Serafini) [2019, США, Семейный, DVDRip] MVO (Синема УС)

Ответить на тему
 
Автор Сообщение

islamvillage.com

Создавать темы 11-Янв-2019 11:33

[Цитировать]

Пони с перебитым крылом / Пегас: Пони со сломанным крылом / Pegasus: Pony with a Broken Wing
Страна: США
Жанр: Семейный
Год выхода: 2019
Продолжительность: 01:26:16
Перевод: Любительский (многоголосый закадровый) Синема УС
Субтитры: нет
Режиссер: Джорджо Серафини / Giorgio Serafini
В ролях: Джонатан Силвермен, Чаризма Карпентер, Том Арнольд, Элиза Джарретт, Джордан Эльсасс, Джонни Синклер Серафини, Дженнифер Гриффин, Эль Ламонт
Описание: Семья на грани потери своего ранчо случайно находит крылатого коня, который полностью меняет их жизнь. Сказка для тех взрослых, которые верят в чудеса.
Доп. информация: Без рекламы
фильм сделан в 2018г, первый показ 08.01.2019.
Сэмпл: http://www.sendspace.com/file/5orxzc
Качество видео: DVDRip
Формат файла: AVI
Видео: XviD, 720 х 400 пикс, 23,976 кадра/сек, 2062 Кбит/сек, 0.299 Бит/(Пиксели*Кадры)
Аудио: AC-3, 48,0 КГц, 192 Кбит/сек Постоянный, 2 канала Front: L R

MediaInfo

ОбщееПолное имя : C:\фильмы\02 возможно для раздачи\Пони с перебитым крылом 2019г\Пони с перебитым крылом (2019г).aviФормат файла : AVIФормат файла/Информация : Audio Video InterleaveРазмер файла : 1,36 ГбайтПродолжительность : 1 ч. 26 м.Общий поток : 2263 Кбит/сек
ВидеоИдентификатор : 0Формат файла : MPEG-4 VisualПрофиль формата : Simple@L3Параметр BVOP формата : НетПараметр QPel формата : НетПараметр GMC формата : Без точки переходаПараметр матрицы формата : Default (H.263)Идентификатор кодека : XVIDИдентификатор кодека/Подсказка : XviDПродолжительность : 1 ч. 26 м.Битрейт : 2062 Кбит/секШирина : 720 пикселейВысота : 400 пикселейСоотношение сторон : 16:9Частота кадров : 23,976 кадра/секЦветовое пространство : YUVСубдискретизация насыщенности : 4:2:0Битовая глубина : 8 битТип развёртки : ПрогрессивнаяМетод сжатия : С потерямиБит/(Пиксели*Кадры) : 0.299Размер потока : 1,24 Гбайт (91%)Библиотека кодирования : XviD 67
АудиоИдентификатор : 1Формат файла : AC-3Формат файла/Информация : Audio Coding 3Расширение режима : CM (complete main)Параметр Endianness формата : BigИдентификатор кодека : 2000Продолжительность : 1 ч. 26 м.Вид битрейта : ПостоянныйБитрейт : 192 Кбит/секКаналы : 2 каналаРасположение каналов : Front: L RЧастота : 48,0 КГцБитовая глубина : 16 битМетод сжатия : С потерямиРазмер потока : 118 Мбайт (8%)Выравнивание : Соединение по промежуткамПродолжительность промежутка : 42 мс. (1,00 видеокадр)

Скриншоты и скриншот названия


скриншот года выпуска

Предыдущие или аналогичные раздачи

пока нет

источник рипа

Близзардкидс
Огромное спасибо тому, кто выложил этот фильм
[Профиль]    [ЛС]
Показать сообщения:    
Ответить на тему

Текущее время: Сегодня 04:07

Часовой пояс: GMT + 7



Вы не можете начинать темы
Вы не можете отвечать на сообщения
Вы не можете редактировать свои сообщения
Вы не можете удалять свои сообщения
Вы не можете голосовать в опросах
Вы не можете прикреплять файлы к сообщениям
Вы не можете скачивать файлы


Responder | Ajouter au panier | Nexus The Jupiter Incident RELOADED [FuLL]