Искатели - "Каменный ребус" [2016, документальный, DVB]

Ответить на тему
Статистика раздачи [Обновить пиров]
Размер:  1.04 GB   |    Зарегистрирован:  1 год 10 месяцев   |    Скачан:  0 раз

Полного источника не было: Никогда

 
   
 
 
 
Автор Сообщение

islamvillage.com

Создавать темы 18-Фев-2017 22:26

[Цитировать]

Искатели - "Каменный ребус".
Год выхода: 2016
Страна: Россия
Жанр: Документальный
Продолжительность: 00:44:01
Перевод: Не требуется
Русские субтитры: нет

Описание

Цикл познавательно-приключенческих программ, посвященный общественно значимым событиям истории России и зарубежья, а также частным историям известных людей, которые оставили потомкам много вопросов и тайн. Жанр цикла – историческое расследование, "телевизионные приключения для взрослых". Чтобы разгадать очередную тайну, "Искатели" исследуют как летописные источники, так и находки, обнаруженные непосредственно на месте исторических событий.
В выпуске: Георгиевский храм в Юрьеве-Польском по праву называют жемчужиной древнерусской архитектуры, а резьбу, украшающую его стены - каменным ребусом. Дело в том, что, построенный в XIII веке, храм через двести лет после возведения практически разрушился и был восстановлен известным московским зодчим, Василием Ермолиным, "на глазок" - узоры, некогда украшавшие собор, утратили былую целостность. Многие годы историки, архитекторы и искусствоведы бьются над загадкой каменной резьбы Георгиевского храма, пытаясь восстановить ее первоначальный вид. Ясно, что резьба появилась на стенах храма не случайно и содержала в себе зашифрованное послание. Но какое? Карту сокровищ? Сакральные знания древности? Или некий призыв, обращенный к современникам и потомкам? Искатели попытаются внести свою лепту в решение этой сложной головоломки.
Качество видео: DVB
Формат файла: MPEG-PS
Видео: MPEG2 Video, 720x576 (4:3), 25 fps, 3100 kbps
Аудио: MPEG Audiо, 2 сh, 48 kHz, 192 kbps
Трансляция спутникового канала:

MediaInfo

General
Complete name : D:\Искатели. Каменный ребус. (2016)_DVB by SLuMeP.mpg
Format : MPEG-PS
File size : 1.04 GiB
Duration : 44mn 1s
Overall bit rate mode : Variable
Overall bit rate : 3 377 Kbps
Video
ID : 224 (0xE0)
Format : MPEG Video
Format version : Version 2
Format profile : Main@Main
Format settings, BVOP : Yes
Format settings, Matrix : Custom
Format settings, GOP : Variable
Format settings, picture st : Frame
Duration : 44mn 1s
Bit rate mode : Variable
Bit rate : 3 118 Kbps
Maximum bit rate : 15.0 Mbps
Width : 720 pixels
Height : 576 pixels
Display aspect ratio : 4:3
Frame rate : 25.000 fps
Standard : PAL
Color space : YUV
Chroma subsampling : 4:2:0
Bit depth : 8 bits
Scan type : Interlaced
Scan order : Top Field First
Compression mode : Lossy
Bits/(Pixel*Frame) : 0.301
Time code of first frame : 00:00:00:00
Time code source : Group of pictures header
GOP, Open/Closed : Open
Stream size : 982 MiB (92%)
GOP, Open/Closed of first f : Closed
Audio
ID : 192 (0xC0)
Format : MPEG Audio
Format version : Version 1
Format profile : Layer 2
Duration : 44mn 1s
Bit rate mode : Constant
Bit rate : 192 Kbps
Channel(s) : 2 channels
Sampling rate : 48.0 KHz
Compression mode : Lossy
Delay relative to video : 9ms
Stream size : 60.5 MiB (6%)

Скриншоты



[islamvillage.com]_t_5283216.torrent
Торрент: Зарегистрирован ·  [ 2017-02-18 22:18 ] ·  028907120b63fddce236d6ba5d16ea685d69c634

11 KB

Статус: проверено
Скачан: 0 раз
Размер: 1.04 GB
Оценка: 
(Голосов: 0)
Сказали спасибо: 0  Спасибо
Похожие темы
[Профиль]    [ЛС]
Показать сообщения:    
Ответить на тему

Текущее время: Сегодня 18:41

Часовой пояс: GMT + 7



Вы не можете начинать темы
Вы не можете отвечать на сообщения
Вы не можете редактировать свои сообщения
Вы не можете удалять свои сообщения
Вы не можете голосовать в опросах
Вы не можете прикреплять файлы к сообщениям
Вы можете скачивать файлы


Copyright | Baby Doll Clothes Suit Zapf Doll Jumpsuit Suit Doll Nightdress Sleeping Clothes | w 8 sklepach