Искатели - "Тайна горного аэродрома" [2016, документальный, DVB]

Ответить на тему
Статистика раздачи [Обновить пиров]
Размер:  950 MB   |    Зарегистрирован:  1 год 10 месяцев   |    Скачан:  0 раз

Полного источника не было: Никогда

 
   
 
 
 
Автор Сообщение

islamvillage.com

Создавать темы 18-Фев-2017 22:26

[Цитировать]

Искатели - "Тайна горного аэродрома".
Год выхода: 2016
Страна: Россия
Жанр: Документальный
Продолжительность: 00:44:12
Перевод: Не требуется
Русские субтитры: нет

Описание

Цикл познавательно-приключенческих программ, посвященный общественно значимым событиям истории России и зарубежья, а также частным историям известных людей, которые оставили потомкам много вопросов и тайн. Жанр цикла – историческое расследование, "телевизионные приключения для взрослых". Чтобы разгадать очередную тайну, "Искатели" исследуют как летописные источники, так и находки, обнаруженные непосредственно на месте исторических событий.
В выпуске: В Северном Приэльбрусье, на высоте трех тысяч метров над уровнем моря, есть таинственное место. Это абсолютно ровная, будто выглаженная бульдозерами, огромная площадка размером километр на два. Каждый, кто видел это плато, замирает, пораженный величием места, и задается вопросом: что это - чудо природы или создание рук человеческих? Однозначного ответа до сих пор нет. Поэтому происхождение плато обрастает мифами и легендами. Кто-то склонялся к версии, что когда-то здесь было горное озеро. Кто-то вспоминает о пришельцах и НЛО. Но большинство уверено, что тут не обошлось без вмешательства человека. Сегодня это плато используют службы МЧС, как посадочную полосу для вертолетов. Быть может, кто-то действительно построил горный аэродром? Но кто, когда и, главное - с какой целью?
Качество видео: DVB
Формат файла: MPEG-PS
Видео: MPEG2 Video, 720x576 (4:3), 25 fps, 2700 kbps
Аудио: MPEG Audiо, 2 сh, 48 kHz, 192 kbps
Трансляция спутникового канала:

MediaInfo

General
Complete name : D:\Искатели. Тайна горного аэродрома. (2016)_DVB by SLuMeP.mpg
Format : MPEG-PS
File size : 950 MiB
Duration : 44 min
Overall bit rate mode : Variable
Overall bit rate : 3 002 kb/s
Video
ID : 224 (0xE0)
Format : MPEG Video
Format version : Version 2
Format profile : Main@Main
Format settings, BVOP : Yes
Format settings, Matrix : Custom
Format settings, GOP : Variable
Format settings, picture struc : Frame
Duration : 44 min
Bit rate mode : Variable
Bit rate : 2 751 kb/s
Maximum bit rate : 15.0 Mb/s
Width : 720 pixels
Height : 576 pixels
Display aspect ratio : 4:3
Frame rate : 25.000 FPS
Standard : PAL
Color space : YUV
Chroma subsampling : 4:2:0
Bit depth : 8 bits
Scan type : Interlaced
Scan order : Top Field First
Compression mode : Lossy
Bits/(Pixel*Frame) : 0.265
Time code of first frame : 00:00:00:00
Time code source : Group of pictures header
GOP, Open/Closed : Open
Stream size : 870 MiB (92%)
Audio
ID : 192 (0xC0)
Format : MPEG Audio
Format version : Version 1
Format profile : Layer 2
Duration : 44 min
Bit rate mode : Constant
Bit rate : 192 kb/s
Channel(s) : 2 channels
Sampling rate : 48.0 kHz
Compression mode : Lossy
Delay relative to video : 1 ms
Stream size : 60.7 MiB (6%)

Скриншоты



[islamvillage.com]_t_5279850.torrent
Торрент: Зарегистрирован ·  [ 2017-02-18 22:18 ] ·  2be4a8e1c84b2fdd7e0db6401dd09f735c8b50aa

19 KB

Статус: проверено
Скачан: 0 раз
Размер: 950 MB
Оценка: 
(Голосов: 0)
Сказали спасибо: 0  Спасибо
Похожие темы
[Профиль]    [ЛС]
Показать сообщения:    
Ответить на тему

Текущее время: Сегодня 19:29

Часовой пояс: GMT + 7



Вы не можете начинать темы
Вы не можете отвечать на сообщения
Вы не можете редактировать свои сообщения
Вы не можете удалять свои сообщения
Вы не можете голосовать в опросах
Вы не можете прикреплять файлы к сообщениям
Вы можете скачивать файлы


Bomber Crew USAAF-PLAZA | Exlibris Original De N. Neimesch (Ukr), Linoleo (X3),1999, 70X87. Firmado | Ergonomie web