Искатели - "Русский адмирал Пол Джонс" [2016, документальный, DVB]

Ответить на тему
Статистика раздачи [Обновить пиров]
Размер:  1 GB   |    Зарегистрирован:  1 год 10 месяцев   |    Скачан:  0 раз

Полного источника не было: Никогда

 
   
 
 
 
Автор Сообщение

islamvillage.com

Создавать темы 18-Фев-2017 22:26

[Цитировать]

Искатели - "Русский адмирал Пол Джонс".
Год выхода: 2016
Страна: Россия
Жанр: Документальный
Продолжительность: 00:43:56
Перевод: Не требуется
Русские субтитры: нет

Описание

Цикл познавательно-приключенческих программ, посвященный общественно значимым событиям истории России и зарубежья, а также частным историям известных людей, которые оставили потомкам много вопросов и тайн. Жанр цикла – историческое расследование, "телевизионные приключения для взрослых". Чтобы разгадать очередную тайну, "Искатели" исследуют как летописные источники, так и находки, обнаруженные непосредственно на месте исторических событий.
В выпуске: Весной 1789 года в Петербурге разразился скандал - горожане из уст в уста передавали историю о том, что некий адмирал надругался над 12-летней Катериной Гольцварт, а после выбросил ее на улицу. Адмиралом оказался некий Джон Пол Джонс, британец по происхождению и легендарный американский морской волк, считавшийся основателем военно-морского флота США. При этом целый год Пол Джонс служил в России в звании русского адмирала! Бил турок на Черном море, успел подружиться с Суворовым и Кутузовым и даже обсуждал с Екатериной Великой проект конституции и укрепления русско-американских отношений. Но в результате скандала вокруг истории с несовершеннолетней Гольцварт Пол Джонс был вынужден оставить успешную военную службу и покинуть Россию. Говорили о том, что это, конечно же, провокация, что кому-то был выгоден его отъезд. Но кому же? Что тогда на самом деле произошло?
Качество видео: DVB
Формат файла: MPEG-PS
Видео: MPEG2 Video, 720x576 (4:3), 25 fps, 3000 kbps
Аудио: MPEG Audiо, 2 сh, 48 kHz, 192 kbps
Трансляция спутникового канала:

MediaInfo

General
Complete name : D:\Искатели. Русский адмирал Пол Джонс. (2016)_DVB by SLuMeP.mpg
Format : MPEG-PS
File size : 1.00 GiB
Duration : 43mn 56s
Overall bit rate mode : Variable
Overall bit rate : 3 265 Kbps
Video
ID : 224 (0xE0)
Format : MPEG Video
Format version : Version 2
Format profile : Main@Main
Format settings, BVOP : Yes
Format settings, Matrix : Custom
Format settings, GOP : Variable
Format settings, picture struc : Frame
Duration : 43mn 56s
Bit rate mode : Variable
Bit rate : 3 008 Kbps
Maximum bit rate : 15.0 Mbps
Width : 720 pixels
Height : 576 pixels
Display aspect ratio : 4:3
Frame rate : 25.000 fps
Standard : PAL
Color space : YUV
Chroma subsampling : 4:2:0
Bit depth : 8 bits
Scan type : Interlaced
Scan order : Top Field First
Compression mode : Lossy
Bits/(Pixel*Frame) : 0.290
Time code of first frame : 00:00:00:00
Time code source : Group of pictures header
GOP, Open/Closed : Open
GOP, Open/Closed of first fram : Closed
Stream size : 946 MiB (92%)
Audio
ID : 192 (0xC0)
Format : MPEG Audio
Format version : Version 1
Format profile : Layer 2
Duration : 43mn 56s
Bit rate mode : Constant
Bit rate : 192 Kbps
Channel(s) : 2 channels
Sampling rate : 48.0 KHz
Compression mode : Lossy
Delay relative to video : 4ms
Stream size : 60.4 MiB (6%)

Скриншоты



[islamvillage.com]_t_5221212.torrent
Торрент: Зарегистрирован ·  [ 2017-02-18 22:18 ] ·  9296d9c5d459db8eb61780d55966711d3fde1c1d

11 KB

Статус: проверено
Скачан: 0 раз
Размер: 1 GB
Оценка: 
(Голосов: 0)
Сказали спасибо: 0  Спасибо
Похожие темы
[Профиль]    [ЛС]
Показать сообщения:    
Ответить на тему

Текущее время: Сегодня 18:42

Часовой пояс: GMT + 7



Вы не можете начинать темы
Вы не можете отвечать на сообщения
Вы не можете редактировать свои сообщения
Вы не можете удалять свои сообщения
Вы не можете голосовать в опросах
Вы не можете прикреплять файлы к сообщениям
Вы можете скачивать файлы


Ver Pelicula | Last Post | Rohr Rundrohr Edelstahlrohr V2A VA Edelstahlrundrohr Edelstahl Rohre bis 145 cm