Искатели - "Утраченные мозаики. Страсти по Васнецову" [2016, документальный, DVB]

Ответить на тему
Статистика раздачи [Обновить пиров]
Размер:  997 MB   |    Зарегистрирован:  1 год 10 месяцев   |    Скачан:  0 раз

Полного источника не было: Никогда

 
   
 
 
 
Автор Сообщение

islamvillage.com

Создавать темы 18-Фев-2017 22:26

[Цитировать]

Искатели - "Утраченные мозаики. Страсти по Васнецову".
Год выхода: 2016
Страна: Россия
Жанр: Документальный
Продолжительность: 00:44:02
Перевод: Не требуется

Описание

Цикл познавательно-приключенческих программ, посвященный общественно значимым событиям истории России и зарубежья, а также частным историям известных людей, которые оставили потомкам много вопросов и тайн. Жанр цикла – историческое расследование, "телевизионные приключения для взрослых". Чтобы разгадать очередную тайну, "Искатели" исследуют как летописные источники, так и находки, обнаруженные непосредственно на месте исторических событий.
В выпуске: В начале XX века собор Александра Невского в Варшаве был одним из самых известных православных храмов в Европе. Здание впечатляло своими размерами, но особенно интересными были интерьеры, украшенные мозаиками, изготовленными по эскизам Виктора Васнецова. Одна из них - для алтаря - в общей сложности занимала площадь тысячу квадратных метров. Специалисты до сих пор называют ее лучшим примером мозаичного искусства рубежа XIX - XX веков. Однако в 1918 году, когда Польша стала независимым государством, польский Сейм большинством голосов принял решение снести храм, после чего мозаики Васнецова исчезли. Все, что представляло художественную ценность, было предварительно демонтировано, но куда потом отправились мозаики неизвестно. Есть ли надежда увидеть их спустя сто лет?
Качество видео: DVB
Формат файла: MPEG-PS
Видео: MPEG2 Video, 720x576 (4:3), 25 fps, 2900 kbps
Аудио: MPEG Audiо, 2 сh, 48 kHz, 192 kbps
Трансляция спутникового канала:

MediaInfo

General
Complete name : D:\Искатели. Утраченные мозаики. Страсти по Васнецову. (2016)_DVB by SLuMeP.mpg
Format : MPEG-PS
File size : 997 MiB
Duration : 44mn 2s
Overall bit rate mode : Variable
Overall bit rate : 3 164 Kbps
Video
ID : 224 (0xE0)
Format : MPEG Video
Format version : Version 2
Format profile : Main@Main
Format settings, BVOP : Yes
Format settings, Matrix : Custom
Format settings, GOP : Variable
Format settings, picture struc : Frame
Duration : 44mn 2s
Bit rate mode : Variable
Bit rate : 2 909 Kbps
Maximum bit rate : 15.0 Mbps
Width : 720 pixels
Height : 576 pixels
Display aspect ratio : 4:3
Frame rate : 25.000 fps
Standard : PAL
Color space : YUV
Chroma subsampling : 4:2:0
Bit depth : 8 bits
Scan type : Interlaced
Scan order : Top Field First
Compression mode : Lossy
Bits/(Pixel*Frame) : 0.281
Time code of first frame : 00:00:00:00
Time code source : Group of pictures header
GOP, Open/Closed : Open
GOP, Open/Closed of first fram : Closed
Stream size : 917 MiB (92%)
Audio
ID : 192 (0xC0)
Format : MPEG Audio
Format version : Version 1
Format profile : Layer 2
Duration : 44mn 2s
Bit rate mode : Constant
Bit rate : 192 Kbps
Channel(s) : 2 channels
Sampling rate : 48.0 KHz
Compression mode : Lossy
Delay relative to video : 7ms
Stream size : 60.5 MiB (6%)

Скриншоты



[islamvillage.com]_t_5200664.torrent
Торрент: Зарегистрирован ·  [ 2017-02-18 22:18 ] ·  51c60c36e5c2fbac0d986c0eaf3e42a6d09e737a

20 KB

Статус: проверено
Скачан: 0 раз
Размер: 997 MB
Оценка: 
(Голосов: 0)
Сказали спасибо: 0  Спасибо
Похожие темы
[Профиль]    [ЛС]
Показать сообщения:    
Ответить на тему

Текущее время: Сегодня 18:44

Часовой пояс: GMT + 7



Вы не можете начинать темы
Вы не можете отвечать на сообщения
Вы не можете редактировать свои сообщения
Вы не можете удалять свои сообщения
Вы не можете голосовать в опросах
Вы не можете прикреплять файлы к сообщениям
Вы можете скачивать файлы


O Último Cavaleiro - Legendado Torrent (2018) Download BluRay 720p | Moana 2016 720p BrRip x264 - Y | Web News 1.0.0.0