Битва экстрасенсов / Сезон 16 Выпуски 15 из 15 + Спецвыпуски 5 из 5 (Олег Чаурс) [2015-2016, Паранормальное шоу, SATRip]

Ответить на тему
Статистика раздачи [Обновить пиров]
Размер:  18.91 GB   |    Зарегистрирован:  1 год 10 месяцев   |    Скачан:  0 раз

Полного источника не было: Никогда

 
   
 
 
 
Автор Сообщение

islamvillage.com

Создавать темы 18-Фев-2017 22:26

[Цитировать]

Битва экстрасенсов / Сезон 16
Выпуски 15 из 15 + Спецвыпуски 5 из 5

Год выхода: 2015-2016
Страна: Россия
Жанр: Паранормальное шоу
Продолжительность: 20 х ~01:11:00
Язык: Русский
Ведущий: Марат Башаров
Режиссер: Олег Чаурс
Телеканал: ТНТ
Описание: В этом году среди желающих попасть на 16-й сезон «Битвы экстрасенсов» необычных людей было больше, чем когда-либо. Вот лишь некоторые истории о кандидатах, пришедших на кастинги главного мистического шоу ТНТ и всей России. Уже сейчас понятно: 16-я «Битва» будет ну очень запоминающейся!
Качество: SATRip
Формат файла: AVI
Видео: XviD, 720x400, (16:9), ~1600kbps, 25.000fps
Аудио: MPEG-3, 128kbps, 48.0kHz, 2ch

Список выпусков

Выпуск 01 - 19.09.2015
Выпуск 02 - 26.09.2015
Выпуск 03 - 03.10.2015
Выпуск 04 - 10.10.2015
Выпуск 05 - 17.10.2015
Выпуск 06 - 24.10.2015
Выпуск 07 - 31.10.2015
Выпуск 08 - 07.11.2015
Выпуск 09 - 14.11.2015
Выпуск 10 - 21.11.2015
Выпуск 11 - 28.11.2015
Выпуск 12 - 05.12.2015
Выпуск 13 - 12.12.2015
Выпуск 14 - 19.12.2015
Выпуск 15 - 26.12.2015
Спецвыпуск 1 - 16.01.2016
Спецвыпуск 2 - 23.01.2016
Спецвыпуск 3 - 30.01.2016
Спецвыпуск 4 - 06.02.2016
Спецвыпуск 5 - 13.02.2016

MediaInfo

D:\ÇÀÊÀ×ÊÀ\Bitva.ekstrasensov.16.SATRip\Bitva.ekstrasensov.16.15.SATRip.avi
General
Complete name : D:\ÇÀÊÀ×ÊÀ\Bitva.ekstrasensov.16.SATRip\Bitva.ekstrasensov.16.15.SATRip.avi
Format : AVI
Format/Info : Audio Video Interleave
File size : 967 MiB
Duration : 1h 13mn
Overall bit rate : 1 851 Kbps
Writing application : VirtualDubMod 1.5.10.3 (build 2550/release)
Writing library : VirtualDubMod build 2550/release
Video #0
ID : 0
Format : MPEG-4 Visual
Format profile : Advanced Simple@L5
Format settings, BVOP : 1
Format settings, QPel : No
Format settings, GMC : No warppoints
Format settings, Matrix : Default (MPEG)
Codec ID : XVID
Codec ID/Hint : XviD
Duration : 1h 13mn
Bit rate : 1 650 Kbps
Width : 720 pixels
Height : 400 pixels
Display aspect ratio : 16:9
Frame rate : 25.000 fps
Color space : YUV
Chroma subsampling : 4:2:0
Bit depth : 8 bits
Scan type : Progressive
Compression mode : Lossy
Bits/(Pixel*Frame) : 0.229
Stream size : 862 MiB (89%)
Writing library : XviD 1.2.1 (UTC 2008-12-04)
Audio #1
ID : 1
Format : MPEG Audio
Format version : Version 1
Format profile : Layer 3
Mode : Joint stereo
Codec ID : 55
Codec ID/Hint : MP3
Duration : 1h 13mn
Bit rate mode : Constant
Bit rate : 192 Kbps
Channel(s) : 2 channels
Sampling rate : 48.0 KHz
Compression mode : Lossy
Stream size : 100 MiB (10%)
Alignment : Aligned on interleaves
Interleave, duration : 40 ms (1.00 video frame)
Interleave, preload duration : 504 ms
Writing library : LAME3.99r
Encoding settings : -m j -V 4 -q 2 -lowpass 18.6 -b 192


[islamvillage.com]_t_5166600.torrent
Торрент: Зарегистрирован ·  [ 2017-02-18 22:18 ] ·  d737bf15f82368d77d7347278076c68fa9aab4fb

49 KB

Статус: проверено
Скачан: 0 раз
Размер: 18.91 GB
Оценка: 
(Голосов: 0)
Сказали спасибо: 0  Спасибо
Похожие темы
[Профиль]    [ЛС]
Показать сообщения:    
Ответить на тему

Текущее время: Сегодня 19:03

Часовой пояс: GMT + 7



Вы не можете начинать темы
Вы не можете отвечать на сообщения
Вы не можете редактировать свои сообщения
Вы не можете удалять свои сообщения
Вы не можете голосовать в опросах
Вы не можете прикреплять файлы к сообщениям
Вы можете скачивать файлы


Intransigence | Carol Sutton | GLASS LIKE EYES with PLASTIC BACKS Teddy Bear Making Soft Toy Doll Animal Craft