Искатели - "Николай Пирогов. Жизнь после жизни?" [2015, документальный, DVB-AVC]

Ответить на тему
Статистика раздачи [Обновить пиров]
Размер:  943 MB   |    Зарегистрирован:  1 год 10 месяцев   |    Скачан:  0 раз

Полного источника не было: Никогда

 
   
 
 
 
Автор Сообщение

islamvillage.com

Создавать темы 18-Фев-2017 22:26

[Цитировать]

Искатели - "Николай Пирогов. Жизнь после жизни?".
Год выхода: 2015
Страна: Россия
Жанр: Документальный
Продолжительность: 00:44:02
Субтитры: русские (Teletext)
Перевод: Не требуется

Описание

Цикл познавательно-приключенческих программ, посвященный общественно значимым событиям истории России и зарубежья, а также частным историям известных людей, которые оставили потомкам много вопросов и тайн. Жанр цикла – историческое расследование, "телевизионные приключения для взрослых". Чтобы разгадать очередную тайну, "Искатели" исследуют как летописные источники, так и находки, обнаруженные непосредственно на месте исторических событий .
В выпуске: Медицинские открытия хирурга Николая Пирогова были гениально просты, а успехи в спасении людей столь поразительны и эффектны, что в народе он пользовался славой лекаря, обладающего необыкновенной силой кудесника, общающегося с потусторонним миром. В 1881 году он ушел из жизни, но оказывается, что нетленное тело хирурга до сих пор хранится в стеклянном склепе в небольшой часовне под Винницей. Как это случилось? Есть множество противоречащих друг другу версий ...
Качество видео: DVB
Формат файла: MPEG-TS
Видео: MPEG4 Video (H264), 720x576@785x576 (4:3), анаморф, 25 fps, 2700 kbps
Аудио: MPEG Audio, 2 сh, 48 kHz, 192 kbps
Трансляция спутникового канала:

MediaInfo

General
ID : 1 (0x1)
Complete name : G:\Искатели. Николай Пирогов. Жизнь после жизни. (2015)_DVB by SLuMeP.ts
Format : MPEG-TS
File size : 943 MiB
Duration : 44mn 2s
Overall bit rate mode : Variable
Overall bit rate : 2 995 Kbps
Video
ID : 2506 (0x9CA)
Menu ID : 506 (0x1FA)
Format : AVC
Format/Info : Advanced Video Codec
Format profile : Main@L3
Format settings, CABAC : Yes
Format settings, ReFrames : 3 frames
Format settings, GOP : M=4, N=28
Codec ID : 27
Duration : 44mn 1s
Bit rate : 2 653 Kbps
Width : 720 pixels
Height : 576 pixels
Display aspect ratio : 4:3
Frame rate : 25.000 fps
Standard : Component
Color space : YUV
Chroma subsampling : 4:2:0
Bit depth : 8 bits
Scan type : Interlaced
Scan order : Top Field First
Bits/(Pixel*Frame) : 0.256
Stream size : 836 MiB (89%)
Color range : Limited
Color primaries : BT.601 PAL
Transfer characteristics : BT.470 System B, BT.470 System G
Matrix coefficients : BT.601
Audio
ID : 3506 (0xDB2)
Menu ID : 506 (0x1FA)
Format : MPEG Audio
Format version : Version 1
Format profile : Layer 2
Codec ID : 3
Duration : 44mn 1s
Bit rate mode : Constant
Bit rate : 192 Kbps
Channel(s) : 2 channels
Sampling rate : 48.0 KHz
Compression mode : Lossy
Delay relative to video : -120ms
Stream size : 60.5 MiB (6%)
Language : English
Text
ID : 3507 (0xDB3)-100
Menu ID : 506 (0x1FA)
Format : Teletext Subtitle
Language : Russian
Language, more info : For hearing impaired people

Скриншоты




[islamvillage.com]_t_5129189.torrent
Торрент: Зарегистрирован ·  [ 2017-02-18 22:18 ] ·  4ccf0e59fa9131a36c9d4768e38f9566137cfac1

19 KB

Статус: проверено
Скачан: 0 раз
Размер: 943 MB
Оценка: 
(Голосов: 0)
Сказали спасибо: 0  Спасибо
Похожие темы
[Профиль]    [ЛС]
Показать сообщения:    
Ответить на тему

Текущее время: Сегодня 18:44

Часовой пояс: GMT + 7



Вы не можете начинать темы
Вы не можете отвечать на сообщения
Вы не можете редактировать свои сообщения
Вы не можете удалять свои сообщения
Вы не можете голосовать в опросах
Вы не можете прикреплять файлы к сообщениям
Вы можете скачивать файлы


Soranut Yupanun | Джонни Галэки | I am Just Junco #4 - Range