Искатели - "Сокровища белорусских староверов" [2015, документальный, DVB]

Ответить на тему
Статистика раздачи [Обновить пиров]
Размер:  1.1 GB   |    Зарегистрирован:  1 год 10 месяцев   |    Скачан:  0 раз

Полного источника не было: Никогда

 
   
 
 
 
Автор Сообщение

islamvillage.com

Создавать темы 18-Фев-2017 22:26

[Цитировать]

Искатели - "Сокровища белорусских староверов".
Год выхода: 2015
Страна: Россия
Жанр: Документальный
Продолжительность: 00:44:21
Перевод: Не требуется

Описание

Цикл познавательно-приключенческих программ, посвященный общественно значимым событиям истории России и зарубежья, а также частным историям известных людей, которые оставили потомкам много вопросов и тайн. Жанр цикла – историческое расследование, "телевизионные приключения для взрослых". Чтобы разгадать очередную тайну, "Искатели" исследуют как летописные источники, так и находки, обнаруженные непосредственно на месте исторических событий.
В выпуске: Зимой 1923 года в Гомеле случилась серия дерзких ограблений. Налетчики врывались в квартиры мирных горожан и, грозя оружием, забирали всё - украшения, золотые монеты, старинные иконы. Банда называла себя "Черный ворон". На протяжении двух лет бандиты из Гомеля "гастролировали" по всей России, однако примерно раз в месяц наведывались в Гомель. У них была конкретная цель - они искали сокровища староверов.
Качество видео: DVB
Формат файла: MPEG-PS
Видео: MPEG2 Video, 720x576 (4:3), 25 fps, 3300 kbps
Аудио: MPEG Audiо, 2 сh, 48 kHz, 192 kbps
Трансляция спутникового канала:

MediaInfo

G:\Искатели. Сокровища белорусских староверов. (2015)_DVB by SLuMeP.mpg
General
Complete name : G:\Искатели. Сокровища белорусских староверов. (2015)_DVB by SLuMeP.mpg
Format : MPEG-PS
File size : 1.10 GiB
Duration : 44mn 21s
Overall bit rate mode : Variable
Overall bit rate : 3 543 Kbps
Video #224
ID : 224 (0xE0)
Format : MPEG Video
Format version : Version 2
Format profile : Main@Main
Format settings, BVOP : Yes
Format settings, Matrix : Custom
Format settings, GOP : Variable
Duration : 44mn 21s
Bit rate mode : Variable
Bit rate : 3 280 Kbps
Maximum bit rate : 15.0 Mbps
Width : 720 pixels
Height : 576 pixels
Display aspect ratio : 4:3
Frame rate : 25.000 fps
Standard : PAL
Color space : YUV
Chroma subsampling : 4:2:0
Bit depth : 8 bits
Scan type : Interlaced
Scan order : Top Field First
Compression mode : Lossy
Bits/(Pixel*Frame) : 0.316
Time code of first frame : 00:00:00:00
Time code source : Group of pictures header
Stream size : 1.02 GiB (93%)
Audio #192
ID : 192 (0xC0)
Format : MPEG Audio
Format version : Version 1
Format profile : Layer 2
Duration : 44mn 21s
Bit rate mode : Constant
Bit rate : 192 Kbps
Channel(s) : 2 channels
Sampling rate : 48.0 KHz
Compression mode : Lossy
Stream size : 60.9 MiB (5%)

Скриншоты




[islamvillage.com]_t_5105076.torrent
Торрент: Зарегистрирован ·  [ 2017-02-18 22:18 ] ·  e215b0e6bea838e4187e376362967d2d961eeac2

12 KB

Статус: проверено
Скачан: 0 раз
Размер: 1.1 GB
Оценка: 
(Голосов: 0)
Сказали спасибо: 0  Спасибо
Похожие темы
[Профиль]    [ЛС]
Показать сообщения:    
Ответить на тему

Текущее время: Сегодня 19:28

Часовой пояс: GMT + 7



Вы не можете начинать темы
Вы не можете отвечать на сообщения
Вы не можете редактировать свои сообщения
Вы не можете удалять свои сообщения
Вы не можете голосовать в опросах
Вы не можете прикреплять файлы к сообщениям
Вы можете скачивать файлы


Swarovski 2018 Annual Snowflake Christmas Ornament 5301575 | Writing and Communication - 732 Words | Frother électrique au lait