Искатели - "Пропавшая крепость" [2015, документальный, DVB]

Ответить на тему
Статистика раздачи [Обновить пиров]
Размер:  891 MB   |    Зарегистрирован:  1 год 10 месяцев   |    Скачан:  0 раз

Полного источника не было: Никогда

 
   
 
 
 
Автор Сообщение

islamvillage.com

Создавать темы 18-Фев-2017 22:26

[Цитировать]

Искатели - "Пропавшая крепость".
Год выхода: 2015
Страна: Россия
Жанр: Документальный
Продолжительность: 00:44:12
Перевод: Не требуется

Описание

Цикл познавательно-приключенческих программ, посвященный общественно значимым событиям истории России и зарубежья, а также частным историям известных людей, которые оставили потомкам много вопросов и тайн. Жанр цикла – историческое расследование, "телевизионные приключения для взрослых". Чтобы разгадать очередную тайну, "Искатели" исследуют как летописные источники, так и находки, обнаруженные непосредственно на месте исторических событий.
В выпуске: На фотографиях, сделанных во время погружения в Белое море одной археологической экспедицией, которая поднимала затонувший в XVIII веке корабль, внезапно обнаружились очертания орудийного лафета. Оказалось, что это не единственное старинное орудие, которое было найдено в этом районе. Первое нашли совершенно случайно более 20 лет назад. Местные жители утверждают, что на этом месте находилась старинная новодвинская крепость. Но куда и когда она исчезла, и как получилось, что сейчас от крепости почти не осталось следов?
Качество видео: DVB
Формат файла: MPEG-PS
Видео: MPEG2 Video, 720x576 (4:3), 25 fps, 2600 kbps
Аудио: MPEG Audiо, 2 сh, 48 kHz, 192 kbps
Трансляция спутникового канала:

MediaInfo

General
Complete name : D:\Искатели. Пропавшая крепость. (2015)_DVB by SLuMeP.mpg
Format : MPEG-PS
File size : 891 MiB
Duration : 44mn 12s
Overall bit rate mode : Variable
Overall bit rate : 2 818 Kbps
Video
ID : 224 (0xE0)
Format : MPEG Video
Format version : Version 2
Format profile : Main@Main
Format settings, BVOP : No
Format settings, Matrix : Custom
Format settings, GOP : Variable
Duration : 44mn 12s
Bit rate mode : Variable
Bit rate : 2 570 Kbps
Maximum bit rate : 15.0 Mbps
Width : 720 pixels
Height : 576 pixels
Display aspect ratio : 4:3
Frame rate : 25.000 fps
Standard : PAL
Color space : YUV
Chroma subsampling : 4:2:0
Bit depth : 8 bits
Scan type : Interlaced
Scan order : Top Field First
Compression mode : Lossy
Bits/(Pixel*Frame) : 0.248
Time code of first frame : 00:00:00:00
Time code source : Group of pictures header
Stream size : 813 MiB (91%)
Audio
ID : 192 (0xC0)
Format : MPEG Audio
Format version : Version 1
Format profile : Layer 2
Duration : 44mn 12s
Bit rate mode : Constant
Bit rate : 192 Kbps
Channel(s) : 2 channels
Sampling rate : 48.0 KHz
Compression mode : Lossy
Stream size : 60.7 MiB (7%)

Скриншоты




[islamvillage.com]_t_5103642.torrent
Торрент: Зарегистрирован ·  [ 2017-02-18 22:18 ] ·  8a4f70481e16397bc0eb4f27c02ebc0c3ab337a0

18 KB

Статус: проверено
Скачан: 0 раз
Размер: 891 MB
Оценка: 
(Голосов: 0)
Сказали спасибо: 0  Спасибо
Похожие темы
[Профиль]    [ЛС]
Показать сообщения:    
Ответить на тему

Текущее время: Сегодня 20:05

Часовой пояс: GMT + 7



Вы не можете начинать темы
Вы не можете отвечать на сообщения
Вы не можете редактировать свои сообщения
Вы не можете удалять свои сообщения
Вы не можете голосовать в опросах
Вы не можете прикреплять файлы к сообщениям
Вы можете скачивать файлы


Blair Williams | Henchmen | Éber szemek