Искатели. Тайны воздушного боя (Олег Бараев) [2014, Документальный, расследование, SATRip]

Ответить на тему
Статистика раздачи [Обновить пиров]
Размер:  578 MB   |    Зарегистрирован:  1 год 10 месяцев   |    Скачан:  0 раз

Полного источника не было: Никогда

 
   
 
 
 
Автор Сообщение

islamvillage.com

Создавать темы 18-Фев-2017 22:26

[Цитировать]

Искатели. Тайны воздушного боя- Дата/Год выхода: 2014
Страна: Россия
Жанр: Документальный, расследование
Продолжительность: 00:44:00
Режиссер: Олег Бараев
Телеканал: Россия, ООО "Цивилизация"
Описание: В июне 2014 года в Домодедовском районе Подмосковья были обнаружены обломки военного самолета, на котором во время Второй мировой войны совершил таран сам Виктор Талалихин. Подвиг Талалихина вошёл в историю и принес ему славу и звание Героя Советского Союза, но находка добавила неожиданную информацию.
Среди обломков поисковики обнаружили несколько гильз с не пробитым капсюлем, то есть летчик решился на таран, еще не израсходовав боезапас. Этот случай был не единственным. Германская сторона давно выдвинула версию об особых советских "эскадрильях смертников". "Искатели" постараются разобраться: что если секретные подразделения лётчиков-смертников действительно существовали?

качество: SATRip
формат: AVI
Видео: XviD, 1698 Кбит/с, 704x400
Аудио: MP3, 2 ch, 128 Кбит/с
[url=http:// СПАМ

MediaInfo

Формат файла : AVIФормат файла/Информация : Audio Video InterleaveРазмер файла : 578 МбайтПродолжительность : 44 м.Общий поток : 1836 Кбит/секПрограмма кодирования : VirtualDubMod 1.5.10.3 | www.virtualdub-fr.org || (build 2550/release)Библиотека кодирования : VirtualDubMod build 2550/release
ВидеоИдентификатор : 0Формат файла : MPEG-4 VisualПрофиль формата : Advanced Simple@L5Параметр BVOP формата : 1Параметр QPel формата : НетПараметр GMC формата : Без точки переходаПараметр матрицы формата : Default (H.263)Идентификатор кодека : XVIDИдентификатор кодека/Подсказка : XviDПродолжительность : 44 м.Битрейт : 1698 Кбит/секШирина : 704 пикселяВысота : 400 пикселейСоотношение сторон : 16:9Частота кадров : 25,000 кадров/секЦветовое пространство : YUVСубдискретизация насыщенности : 4:2:0Битовая глубина : 8 битТип развёртки : ПрогрессивнаяМетод сжатия : С потерямиБит/(Пиксели*Кадры) : 0.241Размер потока : 534 Мбайт (92%)Библиотека кодирования : XviD 1.2.1 (UTC 2008-12-04)
АудиоИдентификатор : 1Формат файла : MPEG AudioВерсия формата : Version 1Профиль формата : Layer 3Идентификатор кодека : 55Идентификатор кодека/Подсказка : MP3Продолжительность : 44 м.Вид битрейта : ПостоянныйБитрейт : 128 Кбит/секКаналы : 2 каналаЧастота : 48,0 КГцМетод сжатия : С потерямиРазмер потока : 40,3 Мбайт (7%)Выравнивание : Соединение по промежуткамПродолжительность промежутка : 40 мс. (1,00 видеокадр)Время предзагрузки промежутка : 504 мс.Библиотека кодирования : LAME3.99rНастройки программы : -m s -V 4 -q 2 -lowpass 17 -b 128

Скриншоты



[islamvillage.com]_t_5009980.torrent
Торрент: Зарегистрирован ·  [ 2017-02-18 22:18 ] ·  619bdc19d46c43352009a7341e8f019f7004c767

12 KB

Статус: проверено
Скачан: 0 раз
Размер: 578 MB
Оценка: 
(Голосов: 0)
Сказали спасибо: 0  Спасибо
Похожие темы
[Профиль]    [ЛС]
Показать сообщения:    
Ответить на тему

Текущее время: Сегодня 19:44

Часовой пояс: GMT + 7



Вы не можете начинать темы
Вы не можете отвечать на сообщения
Вы не можете редактировать свои сообщения
Вы не можете удалять свои сообщения
Вы не можете голосовать в опросах
Вы не можете прикреплять файлы к сообщениям
Вы можете скачивать файлы


Seriale Online | Link Removal Policy(DMCA) | Business Ethics - 413 Words