Искатели - "Секретная миссия архитектора Щусева" [2015, документальный, DVB-AVC]

Ответить на тему
Статистика раздачи [Обновить пиров]
Размер:  943 MB   |    Зарегистрирован:  1 год 10 месяцев   |    Скачан:  0 раз

Полного источника не было: Никогда

 
   
 
 
 
Автор Сообщение

islamvillage.com

Создавать темы 18-Фев-2017 22:26

[Цитировать]

Искатели - "Секретная миссия архитектора Щусева".
Год выхода: 2015
Страна: Россия
Жанр: Документальный
Продолжительность: 00:44:02
Субтитры: русские (Teletext)
Перевод: Не требуется

Описание

Цикл познавательно-приключенческих программ, посвященный общественно значимым событиям истории России и зарубежья, а также частным историям известных людей, которые оставили потомкам много вопросов и тайн. Жанр цикла – историческое расследование, "телевизионные приключения для взрослых". Чтобы разгадать очередную тайну, "Искатели" исследуют как летописные источники, так и находки, обнаруженные непосредственно на месте исторических событий .
В выпуске: Если идти по легендарной улице Плющихе в сторону набережной Москвы-реки, среди однотипных многоэтажек можно обнаружить очень необычное строение - это знаменитый Дом архитекторов. Он куда выше и шире соседних зданий и имеет стильную выгнутую форму. Спроектировал этот шедевр неоконструктивизма знаменитый архитектор Алексей Щусев. Говорят, Щусев поставил здесь здание такой странной формы не просто так, а для того, чтобы укрыть от лишних глаз старинную церковь, находившуюся во дворе… Могло ли такое быть на самом деле, да еще в 30-е годы XX века?! Зачем академику архитектуры и четырежды лауреату Сталинской премии Алексею Викторовичу Щусеву рисковать всем ради спасения одной-единственной церкви?
Качество видео: DVB
Формат файла: MPEG-TS
Видео: MPEG4 Video (H264), 720x576@785x576 (4:3), анаморф, 25 fps, 2700 kbps
Аудио: MPEG Audio, 2 сh, 48 kHz, 192 kbps
Трансляция спутникового канала:

MediaInfo

G:\Искатели. Секретная миссия архитектора Щусева. (2015)_DVB by SLuMeP.ts
General #1
ID : 1 (0x1)
Complete name : G:\Искатели. Секретная миссия архитектора Щусева. (2015)_DVB by SLuMeP.ts
Format : MPEG-TS
File size : 943 MiB
Duration : 44mn 2s
Overall bit rate mode : Variable
Overall bit rate : 2 995 Kbps
Video #1061
ID : 1061 (0x425)
Menu ID : 1 (0x1)
Format : AVC
Format/Info : Advanced Video Codec
Format profile : Main@L3.0
Format settings, CABAC : Yes
Format settings, ReFrames : 3 frames
Format settings, GOP : M=4, N=28
Codec ID : 27
Duration : 44mn 2s
Bit rate : 2 653 Kbps
Width : 720 pixels
Height : 576 pixels
Display aspect ratio : 4:3
Frame rate : 25.000 fps
Standard : Component
Color space : YUV
Chroma subsampling : 4:2:0
Bit depth : 8 bits
Scan type : Interlaced
Scan order : Top Field First
Bits/(Pixel*Frame) : 0.256
Stream size : 836 MiB (89%)
Color primaries : BT.601 PAL
Transfer characteristics : BT.470 System B, BT.470 System G
Matrix coefficients : BT.601
Audio #1062
ID : 1062 (0x426)
Menu ID : 1 (0x1)
Format : MPEG Audio
Format version : Version 1
Format profile : Layer 2
Codec ID : 3
Duration : 44mn 2s
Bit rate mode : Constant
Bit rate : 192 Kbps
Channel(s) : 2 channels
Sampling rate : 48.0 KHz
Compression mode : Lossy
Stream size : 60.5 MiB (6%)
Language : English
Text #1064-100
ID : 1064 (0x428)-100
Menu ID : 1 (0x1)
Format : Teletext Subtitle
Language : Russian
Menu #1060
ID : 1060 (0x424)
Menu ID : 1 (0x1)
Duration : 44mn 2s
List : 1061 (0x425) (AVC) / 1062 (0x426) (MPEG Audio, English) / 1064 (0x428) ()
Language : / English

Скриншоты



[islamvillage.com]_t_4971803.torrent
Торрент: Зарегистрирован ·  [ 2017-02-18 22:18 ] ·  fde35820f45bc92f2a6be2640122db64e91bdac4

19 KB

Статус: проверено
Скачан: 0 раз
Размер: 943 MB
Оценка: 
(Голосов: 0)
Сказали спасибо: 0  Спасибо
Похожие темы
[Профиль]    [ЛС]
Показать сообщения:    
Ответить на тему

Текущее время: Сегодня 20:07

Часовой пояс: GMT + 7



Вы не можете начинать темы
Вы не можете отвечать на сообщения
Вы не можете редактировать свои сообщения
Вы не можете удалять свои сообщения
Вы не можете голосовать в опросах
Вы не можете прикреплять файлы к сообщениям
Вы можете скачивать файлы


Blog Post #GetARoomBravo Living Room Reboot: Armchairs That Carson and Thom Love S1/Ep9: The Get a Room duo wants to totally transform your living room. Read Blog 12/15/2018 | A Candidate for Murder Essay - 325 Words | 1:12:29 Menit