Галилео / Сезон 14 / Выпуск 15-18 (1030-1033) (Кирилл Гаврилов, Елена Калиберда) [2015, Инфотейнмент, обучающий, семейный, SATRip]

Ответить на тему
Статистика раздачи [Обновить пиров]
Размер:  2.15 GB   |    Зарегистрирован:  1 год 10 месяцев   |    Скачан:  1 раз

Полного источника не было: 6 дней

 
   
 
 
 
Автор Сообщение

islamvillage.com

Создавать темы 18-Фев-2017 22:26

[Цитировать]

Галилео
Год: 2015
Страна: Россия
Жанр: Инфотейнмент, обучающий, семейный
Продолжительность: 4 x ~ 00:48:00
Перевод: Не требуется
Русские субтитры: нет
Оригинальная аудиодорожка: русский
Режиссер: Кирилл Гаврилов, Елена Калиберда
Телеканал: СТС
Описание: Каждая программа состоит их нескольких самостоятельных сюжетов. В каждом из этих сюжетов есть главный герой - человек, предмет, производство, явление или процесс. Если всё вышеперечисленное - объекты внимания "Галилео", то территория внимания - весь мир. Чтобы посмотреть, как точат мечи самураев, мы отправимся в Японию. Чтобы узнать, как шьют футбольные мячи… в исправительно-трудовую колонию в Сибири. Но кто или что бы ни стало героем сюжета, авторы "Галилео" всегда умеют ставить в передаче необычные, интригующие вопросы. Они и становятся "стержнем" сюжета. Вопрос может быть наивным, несерьёзным, даже "детским". Ответ же - всегда точный, в меру обстоятельный. "Взрослый". Но никогда не скучный и не "занудный". Именно поэтому "Галилео" избегает тех вопросов, где не обойтись без формул или "большой науки". Ещё одна особенность программы - ответ на поставленный вопрос всегда даётся визуально. Доказательства всегда демонстрируются видеорядом. Поэтому, формулировка ответа: "Так утверждают психологи" - не для "Галилео". Между собой сюжеты "связывает" ведущий - известный шоумен и магистр радиофизики Александр Пушной.
Сэмпл: http://yadi.sk/i/aA6gvS2Nf2Ykv
Качество: SATRip
Формат файла: AVI
Видео: 720x400 (1.80:1), 25 fps, XviD build 50 ~1412 kbps avg, 0.20 bit/pixel
Аудио: 48 kHz, AC3 Dolby Digital, 2/0 (L,R) ch, ~192 kbps

Внимание ! Раздача ведётся путём добавления новых серий

Внимание! Раздача ведётся путём добавления новых серий; при каждом добавлении создётся новый торрент. Чтобы начать докачку новой серии, пользователям необходимо сделать следующее:
(1) остановить скачивание,
(2) удалить старый торрент у себя из клиента (старые серии удалять не надо),
(3) скачать новый торрент и запустить его у себя в клиенте вместо старого, при этом указать клиенту путь в старую папку куда и должно происходить скачивание новых серий.
Ваш клиент при этом должен произвести хеширование (проверку) старой папки (если не производит сам - помогите ему сделать это), и будет докачивать только те серии которых у вас ещё нет. Старые серии при этом не удаляются, а продолжают раздаваться!
Eсли вы уже удалили старые серии, то предотвратить повторную закачку старых серий можно, отжав галочку в соответсвующих местах при запуске нового торрента. По возможности, желательно не удалять старые серии как можно дольше чтобы релизёр не столько продолжал раздавать старые серии, а смог сконцентрироваться на новых.

Список выпусков

1030. Правила этикета в арабских странах. Нюансы работы современных стеклодувов. Можно ли за месяц научиться всем тонкостям реслинга?!
1031. Что такое дрифт трайк? Что открывает пробку от шампанского: пена или избыточное давление? Что происходит с человеком сразу после ареста в Европе?
1032. Шахты и подземелья Германии. История появления консервов и открывашек для них.
1033.

MediaInfo

ОбщееПолное имя : F:\Галилео\Galileo.S14.SATRip.\Galileo.S14E15.(1030).SATRip..aviФормат файла : AVIФормат файла/Информация : Audio Video InterleaveРазмер файла : 551 МбайтПродолжительность : 47 м.Общий поток : 1614 Кбит/секПрограмма кодирования : VirtualDubMod 1.5.10.3 | www.virtualdub-fr.org || (build 2550/release)Библиотека кодирования : VirtualDubMod build 2550/release
ВидеоИдентификатор : 0Формат файла : MPEG-4 VisualПрофиль формата : Advanced Simple@L5Параметр BVOP формата : 2Параметр QPel формата : НетПараметр GMC формата : Без точки переходаПараметр матрицы формата : Default (MPEG)Идентификатор кодека : XVIDИдентификатор кодека/Подсказка : XviDПродолжительность : 47 м.Битрейт : 1413 Кбит/секШирина : 720 пикселейВысота : 400 пикселейСоотношение сторон : 16:9Частота кадров : 25,000 кадров/секЦветовое пространство : YUVСубдискретизация насыщенности : 4:2:0Битовая глубина : 8 битТип развёртки : ПрогрессивнаяМетод сжатия : С потерямиБит/(Пиксели*Кадры) : 0.196Размер потока : 482 Мбайт (88%)Библиотека кодирования : XviD 1.2.1 (UTC 2008-12-04)
АудиоИдентификатор : 1Формат файла : AC-3Формат файла/Информация : Audio Coding 3Расширение режима : CM (complete main)Параметр Endianness формата : BigИдентификатор кодека : 2000Продолжительность : 47 м.Вид битрейта : ПостоянныйБитрейт : 192 Кбит/секКаналы : 2 каналаРасположение каналов : Front: L RЧастота : 48,0 КГцБитовая глубина : 16 битМетод сжатия : С потерямиРазмер потока : 65,6 Мбайт (12%)Выравнивание : Разделение по промежуткамПродолжительность промежутка : 40 мс. (1,00 видеокадр)Время предзагрузки промежутка : 500 мс.

Скриншоты

06.03.15 Добавлен 1033 выпуск.


[islamvillage.com]_t_4953928.torrent
Торрент: Зарегистрирован ·  [ 2017-02-18 22:18 ] ·  cd47143e7c1e2428747e3ff0467f13f5b73eb343

22 KB

Статус: проверено
Скачан: 1 раз
Размер: 2.15 GB
Оценка: 
(Голосов: 0)
Сказали спасибо: 0  Спасибо
Похожие темы
[Профиль]    [ЛС]
Показать сообщения:    
Ответить на тему

Текущее время: Сегодня 19:22

Часовой пояс: GMT + 7



Вы не можете начинать темы
Вы не можете отвечать на сообщения
Вы не можете редактировать свои сообщения
Вы не можете удалять свои сообщения
Вы не можете голосовать в опросах
Вы не можете прикреплять файлы к сообщениям
Вы можете скачивать файлы


Nguyệt Hà | Social Networking Tools | Charles 'Buddy' Rogers