Искатели - "Подводный клад Балаклавы" [2015, документальный, DVB]

Ответить на тему
Статистика раздачи [Обновить пиров]
Размер:  936 MB   |    Зарегистрирован:  1 год 10 месяцев   |    Скачан:  0 раз

Полного источника не было: Никогда

 
   
 
 
 
Автор Сообщение

islamvillage.com

Создавать темы 18-Фев-2017 22:26

[Цитировать]

Искатели - "Подводный клад Балаклавы".
Год выхода: 2015
Страна: Россия
Жанр: Документальный
Продолжительность: 00:44:05
Перевод: Не требуется

Описание

Цикл познавательно-приключенческих программ, посвященный общественно значимым событиям истории России и зарубежья, а также частным историям известных людей, которые оставили потомкам много вопросов и тайн. Жанр цикла – историческое расследование, "телевизионные приключения для взрослых". Чтобы разгадать очередную тайну, "Искатели" исследуют как летописные источники, так и находки, обнаруженные непосредственно на месте исторических событий .
В выпуске: Морское дно у берегов Севастополя - настоящее кладбище погибших кораблей. Но далеко не каждое из них привлекает внимание исследователей, военных и авантюристов. А интерес к "Черному принцу" - английскому фрегату, затонувшему в маленькой Балаклавской бухте во время Крымской войны, не ослабевал никогда. Вернее, не к нему, а к его загадочному грузу, который неоднократно пытались отыскать водолазы всех морских держав мира. Однако cлухи о том, что именно вез фрегат, ходили разные. В основном, конечно, говорили о несметных богатствах - бочонках с золотом. Но как и зачем они могли попасть на военный корабль? Намекали также на некий груз особой секретности, но что это - никто не знал… Мы постараемся разобраться в этом вопросе.
Качество видео: DVB
Формат файла: MPEG-PS
Видео: MPEG2 Video, 720x576 (4:3), 25 fps, 2700 kbps
Аудио: MPEG Audiо, 2 сh, 48 kHz, 192 kbps
Трансляция спутникового канала:

MediaInfo

General
Complete name : D:\Искатели. Подводный клад Балаклавы. (2015)_DVB by SLuMeP.mpg
Format : MPEG-PS
File size : 936 MiB
Duration : 44mn 5s
Overall bit rate mode : Variable
Overall bit rate : 2 967 Kbps
Video
ID : 224 (0xE0)
Format : MPEG Video
Format version : Version 2
Format profile : Main@Main
Format settings, BVOP : No
Format settings, Matrix : Custom
Format settings, GOP : Variable
Duration : 44mn 5s
Bit rate mode : Variable
Bit rate : 2 716 Kbps
Maximum bit rate : 15.0 Mbps
Width : 720 pixels
Height : 576 pixels
Display aspect ratio : 4:3
Frame rate : 25.000 fps
Standard : PAL
Color space : YUV
Chroma subsampling : 4:2:0
Bit depth : 8 bits
Scan type : Interlaced
Scan order : Top Field First
Compression mode : Lossy
Bits/(Pixel*Frame) : 0.262
Time code of first frame : 00:00:00:00
Time code source : Group of pictures header
Stream size : 857 MiB (92%)
Audio
ID : 192 (0xC0)
Format : MPEG Audio
Format version : Version 1
Format profile : Layer 2
Duration : 44mn 5s
Bit rate mode : Constant
Bit rate : 192 Kbps
Channel(s) : 2 channels
Sampling rate : 48.0 KHz
Compression mode : Lossy
Stream size : 60.6 MiB (6%)

Скриншоты



[islamvillage.com]_t_4938891.torrent
Торрент: Зарегистрирован ·  [ 2017-02-18 22:18 ] ·  a1a002b5f7f579e292c97d431b7f99f7faf22af0

19 KB

Статус: проверено
Скачан: 0 раз
Размер: 936 MB
Оценка: 
(Голосов: 0)
Сказали спасибо: 0  Спасибо
Похожие темы
[Профиль]    [ЛС]
Показать сообщения:    
Ответить на тему

Текущее время: Сегодня 18:44

Часовой пояс: GMT + 7



Вы не можете начинать темы
Вы не можете отвечать на сообщения
Вы не можете редактировать свои сообщения
Вы не можете удалять свои сообщения
Вы не можете голосовать в опросах
Вы не можете прикреплять файлы к сообщениям
Вы можете скачивать файлы


BTS JIMIN (지민) - Promise (약속) (Lyrics Eng/Rom/Han/가사) | Kim’s Convenience | Tannbach – Schicksal eines Dorfes