Искатели - "Тайна гибели красного фабриканта" [2015, документальный, DVB-AVC]

Ответить на тему
Статистика раздачи [Обновить пиров]
Размер:  701 MB   |    Зарегистрирован:  1 год 10 месяцев   |    Скачан:  0 раз

Полного источника не было: Никогда

 
   
 
 
 
Автор Сообщение

islamvillage.com

Создавать темы 18-Фев-2017 22:26

[Цитировать]

Искатели - "Тайна гибели красного фабриканта".
Год выхода: 2015
Страна: Россия
Жанр: Документальный
Продолжительность: 00:44:01
Субтитры: русские (Teletext)
Перевод: Не требуется

Описание

Цикл познавательно-приключенческих программ, посвященный общественно значимым событиям истории России и зарубежья, а также частным историям известных людей, которые оставили потомкам много вопросов и тайн. Жанр цикла – историческое расследование, "телевизионные приключения для взрослых". Чтобы разгадать очередную тайну, "Искатели" исследуют как летописные источники, так и находки, обнаруженные непосредственно на месте исторических событий .
В выпуске: В феврале 1907 года в Москве, на Преображенском кладбище был похоронен владелец одной из крупнейших мебельных фабрик России - Николай Шмит. По слухам, он умер в Бутырке, куда был помещен больше года назад по обвинению в подготовке вооруженного восстания 1905 года. Проводить фабриканта в последний путь пришли тысячи людей, похороны вылились в антиправительственную манифестацию.
После октября 1917 года на могиле Шмита был установлен памятник с надписью: "Зверски зарезан царскими опричниками 13 февраля 1907 года". Казалось бы, все очевидно. Фабрикант, сочувствующий большевикам, был неугоден царской власти. Почти герой революции. Но тогда почему в первом издании Большой советской энциклопедии за 1930 год о нем не сказано ни слова? Во втором издании 1957 года написано, что "обстоятельства его смерти остались неизвестными". Искатели расследуют тайну гибели Николая Шмита.
Качество видео: DVB
Формат файла: MPEG-TS
Видео: MPEG4 Video (H264), 720x576@785x576 (4:3), анаморф, 25 fps, 1900 kbps
Аудио: MPEG Audio, 2 сh, 48 kHz, 192 kbps
Трансляция спутникового канала:

MediaInfo

G:\Искатели. Тайна гибели красного фабриканта. (2015)_DVB by SLuMeP .ts
General #1
ID : 1 (0x1)
Complete name : G:\Искатели. Тайна гибели красного фабриканта. (2015)_DVB by SLuMeP .ts
Format : MPEG-TS
File size : 701 MiB
Duration : 44mn 1s
Overall bit rate mode : Variable
Overall bit rate : 2 224 Kbps
Video #2771
ID : 2771 (0xAD3)
Menu ID : 1 (0x1)
Format : AVC
Format/Info : Advanced Video Codec
Format profile : Main@L3.0
Format settings, CABAC : Yes
Format settings, ReFrames : 3 frames
Format settings, GOP : M=4, N=28
Codec ID : 27
Duration : 44mn 1s
Bit rate : 1 921 Kbps
Width : 720 pixels
Height : 576 pixels
Display aspect ratio : 4:3
Frame rate : 25.000 fps
Standard : Component
Color space : YUV
Chroma subsampling : 4:2:0
Bit depth : 8 bits
Scan type : Interlaced
Scan order : Top Field First
Bits/(Pixel*Frame) : 0.185
Stream size : 605 MiB (86%)
Color primaries : BT.601 PAL
Transfer characteristics : BT.470 System B, BT.470 System G
Matrix coefficients : BT.601
Audio #2772
ID : 2772 (0xAD4)
Menu ID : 1 (0x1)
Format : MPEG Audio
Format version : Version 1
Format profile : Layer 2
Codec ID : 3
Duration : 44mn 1s
Bit rate mode : Constant
Bit rate : 192 Kbps
Channel(s) : 2 channels
Sampling rate : 48.0 KHz
Compression mode : Lossy
Delay relative to video : -40ms
Stream size : 60.5 MiB (9%)
Language : Russian
Text #2773-100
ID : 2773 (0xAD5)-100
Menu ID : 1 (0x1)
Format : Teletext
Language : Russian
Text #2773-888
ID : 2773 (0xAD5)-888
Menu ID : 1 (0x1)
Format : Teletext Subtitle
Language : Russian
Menu #256
ID : 256 (0x100)
Menu ID : 1 (0x1)
Duration : 44mn 1s
List : 2771 (0xAD3) (AVC) / 2772 (0xAD4) (MPEG Audio, Russian) / 2773 (0xAD5) ()
Language : / Russian

Скриншоты



[islamvillage.com]_t_4922269.torrent
Торрент: Зарегистрирован ·  [ 2017-02-18 22:18 ] ·  4ab49d9e97f2d10a4407569dc459418b68a08fd8

14 KB

Статус: проверено
Скачан: 0 раз
Размер: 701 MB
Оценка: 
(Голосов: 0)
Сказали спасибо: 0  Спасибо
Похожие темы
[Профиль]    [ЛС]
Показать сообщения:    
Ответить на тему

Текущее время: Сегодня 19:02

Часовой пояс: GMT + 7



Вы не можете начинать темы
Вы не можете отвечать на сообщения
Вы не можете редактировать свои сообщения
Вы не можете удалять свои сообщения
Вы не можете голосовать в опросах
Вы не можете прикреплять файлы к сообщениям
Вы можете скачивать файлы


Series Modern Family 10x10 | Phiêu Lưu (漂流) | Open Shoulder Crisscross Knitted Dress