Искатели - "Бегство бриллиантщика Позье" [2015, документальный, DVB-AVC]

Ответить на тему
Статистика раздачи [Обновить пиров]
Размер:  557 MB   |    Зарегистрирован:  1 год 10 месяцев   |    Скачан:  0 раз

Полного источника не было: Никогда

 
   
 
 
 
Автор Сообщение

islamvillage.com

Создавать темы 18-Фев-2017 22:26

[Цитировать]

Искатели - "Бегство бриллиантщика Позье".
Год выхода: 2015
Страна: Россия
Жанр: Документальный
Продолжительность: 00:44:01
Субтитры: русские (Teletext)
Перевод: Не требуется

Описание

Цикл познавательно-приключенческих программ, посвященный общественно значимым событиям истории России и зарубежья, а также частным историям известных людей, которые оставили потомкам много вопросов и тайн. Жанр цикла – историческое расследование, "телевизионные приключения для взрослых". Чтобы разгадать очередную тайну, "Искатели" исследуют как летописные источники, так и находки, обнаруженные непосредственно на месте исторических событий .
В выпуске: В 1764 году личный ювелир Екатерины II Иеремия Позье тайно бежал из России. Создатель короны Российской империи, обласканный властью и благополучно переживший несколько эпох, сообщил всем, что отправляется в отпуск, но так никогда и не вернулся в страну, где провел основную часть своей жизни. Чтобы никто ничего не заподозрил, квартиру с мебелью он оставил за собой, а дело своё передал своим приказчикам, которые до официального окончания отпуска Позье молчали о том, что попрощались с ним навсегда. Гневу императрицы не было предела. Что заставило Позье расстаться с должностью? Почему ювелир был вынужден покинуть Россию тайно? Что потеряла Екатерина с отъездом Позье?
Качество видео: DVB
Формат файла: MPEG-TS
Видео: MPEG4 Video (H264), 720x576@785x576 (4:3), анаморф, 25 fps, 1500 kbps
Аудио: MPEG Audio, 2 сh, 48 kHz, 192 kbps
Трансляция спутникового канала:

MediaInfo

General
ID : 1 (0x1)
Complete name : G:\Искатели. Бегство бриллиантщика Позье. (2015)_DVB by SLuMeP.ts
Format : MPEG-TS
File size : 557 MiB
Duration : 44mn 1s
Overall bit rate mode : Variable
Overall bit rate : 1 769 Kbps
Video
ID : 2771 (0xAD3)
Menu ID : 1 (0x1)
Format : AVC
Format/Info : Advanced Video Codec
Format profile : Main@L3.0
Format settings, CABAC : Yes
Format settings, ReFrames : 3 frames
Codec ID : 27
Duration : 44mn 1s
Bit rate : 1 488 Kbps
Width : 720 pixels
Height : 576 pixels
Display aspect ratio : 4:3
Frame rate : 25.000 fps
Standard : Component
Color space : YUV
Chroma subsampling : 4:2:0
Bit depth : 8 bits
Scan type : Progressive
Bits/(Pixel*Frame) : 0.144
Stream size : 469 MiB (84%)
Color primaries : BT.601 PAL
Transfer characteristics : BT.470 System B, BT.470 System G
Matrix coefficients : BT.601
Audio
ID : 2772 (0xAD4)
Menu ID : 1 (0x1)
Format : MPEG Audio
Format version : Version 1
Format profile : Layer 2
Codec ID : 3
Duration : 44mn 1s
Bit rate mode : Constant
Bit rate : 192 Kbps
Channel(s) : 2 channels
Sampling rate : 48.0 KHz
Compression mode : Lossy
Delay relative to video : -40ms
Stream size : 60.5 MiB (11%)
Language : Russian
Text #1
ID : 2773 (0xAD5)-100
Menu ID : 1 (0x1)
Format : Teletext
Language : Russian
Text #2
ID : 2773 (0xAD5)-888
Menu ID : 1 (0x1)
Format : Teletext Subtitle
Language : Russian
Menu
ID : 256 (0x100)
Menu ID : 1 (0x1)
Duration : 44mn 1s
List : 2771 (0xAD3) (AVC) / 2772 (0xAD4) (MPEG Audio, Russian) / 2773 (0xAD5) ()
Language : / Russian

Скриншоты



[islamvillage.com]_t_4916596.torrent
Торрент: Зарегистрирован ·  [ 2017-02-18 22:18 ] ·  822d7d6894add3b8f99fa7cfa7d0a7463ea4382d

11 KB

Статус: проверено
Скачан: 0 раз
Размер: 557 MB
Оценка: 
(Голосов: 0)
Сказали спасибо: 0  Спасибо
Похожие темы
[Профиль]    [ЛС]
Показать сообщения:    
Ответить на тему

Текущее время: Сегодня 19:38

Часовой пояс: GMT + 7



Вы не можете начинать темы
Вы не можете отвечать на сообщения
Вы не можете редактировать свои сообщения
Вы не можете удалять свои сообщения
Вы не можете голосовать в опросах
Вы не можете прикреплять файлы к сообщениям
Вы можете скачивать файлы


vidaXL Steun voor Motorfiets Wielsteun Motorwiel Motorsteun Wielhouder | Sono Toki, Kanojo ... | Coles Little Shop Mini Collectables - Original and Christmas Collection