Искатели Забытый гений фарфора - Дмитрий Виноградов [2014, Документальный, SATRip]

Ответить на тему
Статистика раздачи [Обновить пиров]
Размер:  688 MB   |    Зарегистрирован:  1 год 10 месяцев   |    Скачан:  0 раз

Полного источника не было: Никогда

 
   
 
 
 
Автор Сообщение

islamvillage.com

Создавать темы 18-Фев-2017 22:26

[Цитировать]

Забытый гений фарфора - Дмитрий Виноградов
Дата/Год выхода: 2014
Страна: Россия
Жанр: Документальный
Продолжительность: 00:44:09
Перевод: Не требуется
Русские субтитры: нет
Оригинальная аудиодорожка: нет
Телеканал: ВГТРК "Культура"
Описание: Санкт-Петербург, 1758 год. 25 августа с территории фабрики «Порцелиновая мануфактура» вынесли тело умершего человека. Последние недели своей жизни этот человек был прикован цепью к стене — так обращались с преступниками и злостными нарушителями. Причиной смерти назвали болезнь, а также истощение от тяжелого труда. Кем же был этот несчастный? Им был создатель русского фарфора, основатель фарфорового производства в России Дмитрий Иванович Виноградов. Непонятно почему человек, который должен был купаться в богатстве и славе, умер в полной нищете, да еще, словно вор, прикованный к стене цепью? Чем он заслужил такое наказание? Более того — после его смерти частично исчезла рукопись Виноградова: труд всей его жизни под названием «Обстоятельное описание чистого порцелина». «Искатели» решили разобраться в этой запутанной истории
качество: SATRip
формат: AVI
Видео: MPEG2 Video, 720x480 (4:3), 25 fps, 2036 kbps
Аудио: MPEG Audiо, 1 сh, 48 kHz, 128 kbps

MediaInfo

ОбщееПолное имя : D:\Кино-музыка\Искатели Забытый гений фарфора - Дмитрий Виноградов (2014).aviФормат файла : AVIФормат файла/Информация : Audio Video InterleaveРазмер файла : 688 МбайтПродолжительность : 44 м.Общий поток : 2177 Кбит/секПрограмма кодирования : Lavf52.95.0
ВидеоИдентификатор : 0Формат файла : xvidИдентификатор кодека : xvidПродолжительность : 44 м.Битрейт : 2036 Кбит/секШирина : 720 пикселейВысота : 480 пикселейСоотношение сторон : 1,733Частота кадров : 25,000 кадров/секСтандарт вещания : NTSCБит/(Пиксели*Кадры) : 0.236Размер потока : 643 Мбайт (94%)
АудиоИдентификатор : 1Формат файла : MPEG AudioВерсия формата : Version 1Профиль формата : Layer 3Идентификатор кодека : 55Идентификатор кодека/Подсказка : MP3Продолжительность : 44 м.Вид битрейта : ПостоянныйБитрейт : 128 Кбит/секКаналы : 1 каналЧастота : 48,0 КГцМетод сжатия : С потерямиРазмер потока : 40,4 Мбайт (6%)Выравнивание : Соединение по промежуткамПродолжительность промежутка : 24 мс. (0,60 видеокадр)Библиотека кодирования : LAME3.98.4

Скриншоты



[islamvillage.com]_t_4890964.torrent
Торрент: Зарегистрирован ·  [ 2017-02-18 22:18 ] ·  ca182ef159156bd5b4693fc59807802068a8ae1a

14 KB

Статус: проверено
Скачан: 0 раз
Размер: 688 MB
Оценка: 
(Голосов: 0)
Сказали спасибо: 0  Спасибо
Похожие темы
[Профиль]    [ЛС]
Показать сообщения:    
Ответить на тему

Текущее время: Сегодня 19:17

Часовой пояс: GMT + 7



Вы не можете начинать темы
Вы не можете отвечать на сообщения
Вы не можете редактировать свои сообщения
Вы не можете удалять свои сообщения
Вы не можете голосовать в опросах
Вы не можете прикреплять файлы к сообщениям
Вы можете скачивать файлы


Miss Monochrome: The Animation 3 | Novelas Amar a muerte 1x30 | DR., Mi.-Nr. 540 y b, postfrisch, Befund Schlegel.