Искатели - "Соловецкое чудо" [2014, документальный, DVB]

Ответить на тему
Статистика раздачи [Обновить пиров]
Размер:  903 MB   |    Зарегистрирован:  1 год 10 месяцев   |    Скачан:  0 раз

Полного источника не было: Никогда

 
   
 
 
 
Автор Сообщение

islamvillage.com

Создавать темы 18-Фев-2017 22:26

[Цитировать]

Искатели - "Соловецкое чудо".
Год выхода: 2014
Страна: Россия
Жанр: Документальный
Продолжительность: 00:43:54
Перевод: Не требуется

Описание

Цикл познавательно-приключенческих программ, посвященный общественно значимым событиям истории России и зарубежья, а также частным историям известных людей, которые оставили потомкам много вопросов и тайн. Жанр цикла – историческое расследование, "телевизионные приключения для взрослых". Чтобы разгадать очередную тайну, "Искатели" исследуют как летописные источники, так и находки, обнаруженные непосредственно на месте исторических событий .
В выпуске: Не все помнят, что знаменитая Крымская война шла не только в Крыму, но и на далеком севере - в июле 1854 года атаке английских войск подвергся Соловецкий монастырь. За время многочасового обстрела по обители было выпущено 1800 бомб и ядер, но они не причинили существенного вреда и не оставили ни одного убитого и раненого! Монахи, разумеется, сочли, что это одно из ниспосланных им чудес. Но и на мирян это событие произвело грандиозное впечатление, ведь к тому времени Соловецкая обитель была разоружена - в распоряжении монастыря не было никаких средств военной защиты. Искатели разберутся во всех обстоятельствах этой осады, узнают, какую роль сыграла она в русской истории и каковы же все-таки были предпосылки необыкновенного везения монастыря, где находится грань между реальностью и соловецким чудом…
Качество видео: DVB
Формат файла: MPEG-PS
Видео: MPEG2 Video, 720x576 (4:3), 25 fps, 2600 kbps
Аудио: MPEG Audiо, 2 сh, 48 kHz, 192 kbps
Трансляция спутникового канала:

MediaInfo

General
Complete name : D:\Искатели. Соловецкое чудо. (2014)_DVB by SLuMeP.mpg
Format : MPEG-PS
File size : 903 MiB
Duration : 43mn 54s
Overall bit rate mode : Variable
Overall bit rate : 2 874 Kbps
Video
ID : 224 (0xE0)
Format : MPEG Video
Format version : Version 2
Format profile : Main@Main
Format settings, BVOP : No
Format settings, Matrix : Custom
Format settings, GOP : Variable
Duration : 43mn 54s
Bit rate mode : Variable
Bit rate : 2 625 Kbps
Maximum bit rate : 15.0 Mbps
Width : 720 pixels
Height : 576 pixels
Display aspect ratio : 4:3
Frame rate : 25.000 fps
Standard : PAL
Color space : YUV
Chroma subsampling : 4:2:0
Bit depth : 8 bits
Scan type : Interlaced
Scan order : Top Field First
Compression mode : Lossy
Bits/(Pixel*Frame) : 0.253
Time code of first frame : 00:00:00:00
Time code source : Group of pictures header
Stream size : 824 MiB (91%)
Audio
ID : 192 (0xC0)
Format : MPEG Audio
Format version : Version 1
Format profile : Layer 2
Duration : 43mn 54s
Bit rate mode : Constant
Bit rate : 192 Kbps
Channel(s) : 2 channels
Sampling rate : 48.0 KHz
Compression mode : Lossy
Stream size : 60.3 MiB (7%)

Скриншоты



[islamvillage.com]_t_4873820.torrent
Торрент: Зарегистрирован ·  [ 2017-02-18 22:18 ] ·  cf86f3b7dd23dedd86d1f46074b1816ff5f2d2f6

18 KB

Статус: проверено
Скачан: 0 раз
Размер: 903 MB
Оценка: 
(Голосов: 0)
Сказали спасибо: 0  Спасибо
Похожие темы
[Профиль]    [ЛС]
Показать сообщения:    
Ответить на тему

Текущее время: Сегодня 18:43

Часовой пояс: GMT + 7



Вы не можете начинать темы
Вы не можете отвечать на сообщения
Вы не можете редактировать свои сообщения
Вы не можете удалять свои сообщения
Вы не можете голосовать в опросах
Вы не можете прикреплять файлы к сообщениям
Вы можете скачивать файлы


rocket league | June 2018 | Akzeptiert Preisvorschläge