Искатели. Тайна монастырской звонницы (Олег Бараев) [31.10.2014, Документальный, познавательный, альтернативная история, SATRip]

Ответить на тему
Статистика раздачи [Обновить пиров]
Размер:  515 MB   |    Зарегистрирован:  1 год 10 месяцев   |    Скачан:  0 раз

Полного источника не было: Никогда

 
   
 
 
 
Автор Сообщение

islamvillage.com

Создавать темы 18-Фев-2017 22:26

[Цитировать]

Искатели. Тайна монастырской звонницы
Дата/Год выхода: 31.10.2014
Страна: Россия, ООО "Цивилизация"
Жанр: Документальный, познавательный, альтернативная история
Продолжительность: 00:44:00
Перевод: Не требуется
Русские субтитры: нет
Режиссер: Олег Бараев
Описание: 26 мая 1923 года в Соловецком кремле случился такой сильный пожар, что расплавились даже малые колокола звонницы. И хотя сохранились свидетельства, что не все колокола пострадали во время пожара, в 1920 годы они пропали, и с тех пор звон на архипелаге не раздавался почти полвека. Кто-то говорит, что колокола были отправлены на материк на переплавку, но по дороге баржа затонула, другие - что они были затоплены монахами, чтобы спасти их от поругания. Все последние годы историки пытаются найти следы пропавших колоколов, но пока безрезультатно. Искатели отправляются в Соловецкий монастырь, чтобы расследовать все детали этой истории и попытаться узнать, куда пропали колокола, которые звонили несколько веков.
качество: SATRip
формат: AVI
Видео: 704x400 (1.76:1), 25 fps, XviD build 50 ~1500 kbps avg, 0.21 bit/pixel
Аудио: 48 kHz, MPEG Layer 3, 2 ch, ~128.00 kbps avg

MediaInfo

Complete name : C:\Users\Home\Desktop\Razdacha\Искатели.Тайна монастырской звонницы.2014.SATRip.aviFormat : AVIFormat/Info : Audio Video InterleaveFile size : 515 MiBDuration : 44mn 0sOverall bit rate : 1 637 KbpsWriting application : VirtualDubMod 1.5.10.3 | www.virtualdub-fr.org || (build 2550/release)Writing library : VirtualDubMod build 2550/release
VideoID : 0Format : MPEG-4 VisualFormat profile : Advanced Simple@L5Format settings, BVOP : YesFormat settings, QPel : NoFormat settings, GMC : No warppointsFormat settings, Matrix : Default (MPEG)Codec ID : XVIDCodec ID/Hint : XviDDuration : 44mn 0sBit rate : 1 500 KbpsWidth : 704 pixelsHeight : 400 pixelsDisplay aspect ratio : 16:9Frame rate : 25.000 fpsColor space : YUVChroma subsampling : 4:2:0Bit depth : 8 bitsScan type : ProgressiveBits/(Pixel*Frame) : 0.213Stream size : 472 MiB (92%)Writing library : XviD 1.2.1 (UTC 2008-12-04)
AudioID : 1Format : MPEG AudioFormat version : Version 1Format profile : Layer 3Codec ID : 55Codec ID/Hint : MP3Duration : 43mn 59sBit rate mode : ConstantBit rate : 128 KbpsChannel(s) : 2 channelsSampling rate : 48.0 KHzStream size : 40.3 MiB (8%)Alignment : Aligned on interleavesInterleave, duration : 40 ms (1.00 video frame)Interleave, preload duration : 504 msWriting library : LAME3.99rEncoding settings : -m s -V 4 -q 2 -lowpass 17 -b 128

Скриншоты



[islamvillage.com]_t_4857763.torrent
Торрент: Зарегистрирован ·  [ 2017-02-18 22:18 ] ·  b34f1cd0b951b74dcfb75e784d1229363fbc5e4c

11 KB

Статус: проверено
Скачан: 0 раз
Размер: 515 MB
Оценка: 
(Голосов: 0)
Сказали спасибо: 0  Спасибо
Похожие темы
[Профиль]    [ЛС]
Показать сообщения:    
Ответить на тему

Текущее время: Сегодня 19:19

Часовой пояс: GMT + 7



Вы не можете начинать темы
Вы не можете отвечать на сообщения
Вы не можете редактировать свои сообщения
Вы не можете удалять свои сообщения
Вы не можете голосовать в опросах
Вы не можете прикреплять файлы к сообщениям
Вы можете скачивать файлы


Mens Genuine Leather Bifold Zipper Zip Around Wallet Brown Window ID Credit Card | Me My Pets Collier de Chien/Chiot/Chat en Cuir Doux Marron – Choix de Taille | Mirror #1