Искатели - "Последний приют Апостола" [2010, документальный, DVB]

Ответить на тему
Статистика раздачи [Обновить пиров]
Размер:  597 MB   |    Зарегистрирован:  1 год 10 месяцев   |    Скачан:  0 раз

Полного источника не было: Никогда

 
   
 
 
 
Автор Сообщение

islamvillage.com

Создавать темы 18-Фев-2017 22:26

[Цитировать]

Искатели - "Последний приют Апостола".
Год выхода: 2010
Страна: Россия
Жанр: Документальный
Продолжительность: 00:43:24
Перевод: Не требуется

Описание

Цикл познавательно-приключенческих программ, посвященный общественно значимым событиям истории России и зарубежья, а также частным историям известных людей, которые оставили потомкам много вопросов и тайн. Жанр цикла – историческое расследование, "телевизионные приключения для взрослых". Чтобы разгадать очередную тайну, "Искатели" исследуют как летописные источники, так и находки, обнаруженные непосредственно на месте исторических событий .
В выпуске: фильм посвящен одной из величайших тайн христианского мира - загадке, связанной с местом упокоения одного из первоапостолов - святого Матфея. Известны места захоронения 11 апостолов, а о последнем пристанище апостола Матфея - автора первого Евангелия мало что известно.
Впервые о возможном местонахождении могилы апостола Матфея заговорил русский географ Семенов-Тянь-Шанский, который в ходе экспедиции на юг Российской империи попытался найти мощи святого в районе озера Иссык-Куль. Сегодня открылись новые свидетельства, артефакты, документы, которые помогут проверить версии Семенова-Тянь-Шанского о предполагаемом месте захоронения апостола ...
Качество видео: DVB
Формат файла: MPEG-PS
Видео: MPEG2 Video, 720x576 (4:3), 25 fps, 1700 kbps
Аудио: MPEG Audiо, 2 сh, 48 kHz, 192 kbps
Трансляция спутникового канала:

MediaInfo

General
Complete name : C:\Искатели. Последний приют Апостола. (2010)_DVB by SLuMeP.mpg
Format : MPEG-PS
File size : 597 MiB
Duration : 43mn 24s
Overall bit rate mode : Variable
Overall bit rate : 1 924 Kbps
Video
ID : 224 (0xE0)
Format : MPEG Video
Format version : Version 2
Format profile : Main@Main
Format settings, BVOP : No
Format settings, Matrix : Custom
Format settings, GOP : Variable
Duration : 43mn 24s
Bit rate mode : Variable
Bit rate : 1 694 Kbps
Maximum bit rate : 15.0 Mbps
Width : 720 pixels
Height : 576 pixels
Display aspect ratio : 4:3
Frame rate : 25.000 fps
Standard : PAL
Color space : YUV
Chroma subsampling : 4:2:0
Bit depth : 8 bits
Scan type : Interlaced
Scan order : Top Field First
Compression mode : Lossy
Bits/(Pixel*Frame) : 0.163
Time code of first frame : 00:00:00:00
Time code source : Group of pictures header
Stream size : 526 MiB (88%)
Audio
ID : 192 (0xC0)
Format : MPEG Audio
Format version : Version 1
Format profile : Layer 2
Duration : 43mn 24s
Bit rate mode : Constant
Bit rate : 192 Kbps
Channel(s) : 2 channels
Sampling rate : 48.0 KHz
Compression mode : Lossy
Stream size : 59.6 MiB (10%)

Скриншоты




[islamvillage.com]_t_4771290.torrent
Торрент: Зарегистрирован ·  [ 2017-02-18 22:18 ] ·  51f18fd1bc931ca67457949446275d983ab8ced0

12 KB

Статус: проверено
Скачан: 0 раз
Размер: 597 MB
Оценка: 
(Голосов: 0)
Сказали спасибо: 0  Спасибо
Похожие темы
[Профиль]    [ЛС]
Показать сообщения:    
Ответить на тему

Текущее время: Сегодня 20:07

Часовой пояс: GMT + 7



Вы не можете начинать темы
Вы не можете отвечать на сообщения
Вы не можете редактировать свои сообщения
Вы не можете удалять свои сообщения
Вы не можете голосовать в опросах
Вы не можете прикреплять файлы к сообщениям
Вы можете скачивать файлы


Nefes Nefese | Thám Tử Lừng Danh Conan chap 923 | Abelssoft FileFusion 2019 2.04 Build 168 Multilingual