Искатели - ""Черная книга" Якова Брюса" [2014, документальный, DVB]

Ответить на тему
Статистика раздачи [Обновить пиров]
Размер:  587 MB   |    Зарегистрирован:  1 год 10 месяцев   |    Скачан:  0 раз

Полного источника не было: Никогда

 
   
 
 
 
Автор Сообщение

islamvillage.com

Создавать темы 18-Фев-2017 22:26

[Цитировать]

Искатели - ""Черная книга" Якова Брюса".
Год выхода: 2014
Страна: Россия
Жанр: Документальный
Продолжительность: 00:44:03
Перевод: Не требуется

Описание

Цикл познавательно-приключенческих программ, посвященный общественно значимым событиям истории России и зарубежья, а также частным историям известных людей, которые оставили потомкам много вопросов и тайн. Жанр цикла – историческое расследование, "телевизионные приключения для взрослых". Чтобы разгадать очередную тайну, "Искатели" исследуют как летописные источники, так и находки, обнаруженные непосредственно на месте исторических событий .
В выпуске: Вокруг личности знаменитого ученого и сподвижника Петра Первого - Якова Брюса - ходили самые необыкновенные слухи: что он создал гомункула, что знает, где взять живую и мертвую воду, что по ночам проводит опыты в Сухаревской башне, а когда устанет, вылетает из нее на железной птице и кружит над городом. Брюс стал русским воплощением международного мифа о великом ученом всех времен и народов… Считалось, что все его тайные знания сосредоточены в "Черной книге", которую он прячет в кладке Сухаревской башни, и что, если вынуть ее оттуда без разрешения, башня рухнет. Так отчего же она все-таки рухнула? Кем был Яков Брюс? Можно ли сегодня найти его загадочную книгу?
Качество видео: DVB
Формат файла: MPEG-PS
Видео: MPEG2 Video, 720x576 (4:3), 25 fps, 1600 kbps
Аудио: MPEG Audiо, 2 сh, 48 kHz, 192 kbps
Трансляция спутникового канала:

MediaInfo

General
Complete name : G:\Искатели. Черная книга Якова Брюса. (2014)_DVB by SLuMeP.mpg
Format : MPEG-PS
File size : 587 MiB
Duration : 44mn 3s
Overall bit rate mode : Variable
Overall bit rate : 1 862 Kbps
Writing library : (c) 1998-2010 Womble Multimedia, Inc. / MPEG Video Wizard DVD 5.0.0.114 (01/2010) / Apr 20 2010
Video
ID : 224 (0xE0)
Format : MPEG Video
Format version : Version 2
Format profile : Main@Main
Format settings, BVOP : Yes
Format settings, Matrix : Custom
Format settings, GOP : Variable
Duration : 44mn 3s
Bit rate mode : Variable
Bit rate : 1 633 Kbps
Maximum bit rate : 15.0 Mbps
Width : 720 pixels
Height : 576 pixels
Display aspect ratio : 4:3
Frame rate : 25.000 fps
Standard : PAL
Color space : YUV
Chroma subsampling : 4:2:0
Bit depth : 8 bits
Scan type : Interlaced
Scan order : Top Field First
Compression mode : Lossy
Bits/(Pixel*Frame) : 0.157
Time code of first frame : 00:00:00:00
Time code source : Group of pictures header
Stream size : 515 MiB (88%)
Source encoded stream size : (c) 1998-2010 Womble Multimedia, Inc. / MPEG Video Wizard DVD 5.0.0.114 (01/2010) / Apr 20 2010
Writing library : (c) 1998-2010 Womble Multimedia, Inc. / MPEG Video Wizard DVD 5.0.0.114 (01/2010) / Apr 20 2010
Audio
ID : 192 (0xC0)
Format : MPEG Audio
Format version : Version 1
Format profile : Layer 2
Duration : 44mn 3s
Bit rate mode : Constant
Bit rate : 192 Kbps
Channel(s) : 2 channels
Sampling rate : 48.0 KHz
Compression mode : Lossy
Delay relative to video : -80ms
Stream size : 60.5 MiB (10%)
Menu

Скриншоты



[islamvillage.com]_t_4715763.torrent
Торрент: Зарегистрирован ·  [ 2017-02-18 22:18 ] ·  45e2b8e0f832fb41d8ce16de8788ef7c127ab710

12 KB

Статус: проверено
Скачан: 0 раз
Размер: 587 MB
Оценка: 
(Голосов: 0)
Сказали спасибо: 0  Спасибо
Похожие темы
[Профиль]    [ЛС]
Показать сообщения:    
Ответить на тему

Текущее время: Сегодня 19:22

Часовой пояс: GMT + 7



Вы не можете начинать темы
Вы не можете отвечать на сообщения
Вы не можете редактировать свои сообщения
Вы не можете удалять свои сообщения
Вы не можете голосовать в опросах
Вы не можете прикреплять файлы к сообщениям
Вы можете скачивать файлы


illusion | Aventure | 2017 Fall Embroidere Ken Paris Tiger Sweater Eyes €23,22 Gekauft von 100+