Житие и вознесение Юрася Братчика (Христос приземлился в Гродно) (Владимир Бычков, Сергей Скворцов) [1967, исторический, трагикомедия, драма, притча, экранизация, DVB-AVC]

Ответить на тему
Статистика раздачи [Обновить пиров]
Размер:  1.89 GB   |    Зарегистрирован:  1 год 10 месяцев   |    Скачан:  1 раз

Полного источника не было: 7 месяцев 14 дней

 
   
 
 
 
Автор Сообщение

islamvillage.com

Создавать темы 08-Мар-2017 22:12

[Цитировать]

Житие и вознесение Юрася Братчика
По роману Владимира Короткевича "Христос приземлился в Гродно"
Жанр: исторический, трагикомедия, драма, притча, экранизация
Год выхода: 1967
Продолжительность: 01:20:28
Режиссёры: Владимир Бычков, Сергей Скворцов
В ролях:
Юрась Братчик, бродяга, за доброту и сомнения в вере превращённый в Христа — Лев Дуров
Иосия бен Равунни, бедный корчмарь, неизвестно за что наречённый Иудой — Илья Рутберг
Резчик, за маловерие и упрямство своё названный апостолом Фомой — Лев Круглый
Бородатый рыбарь, за тяжелодумие своё превращённый в апостола Петра — Алексей Смирнов
Нищий шляхтич, за спесивость свою поставленный апостолом Павлом — Павел Кормунин
Марина Кривиц, блудница, тайно превращённая в апостола Иоанна — Любовь Румянцева
Бывшие бродяги, случайно определённые в апостолы — Анатолий Столбов, Владимир Поночевный, Владимир Васильев, Ростислав Шмырёв, Игорь Смушкевич, Э. Перегуд
Кардинал Лотр, власть церкви — Вячеслав Бровкин
Иезуит Босяцкий, хитрость и сладкоречие её — Донатас Банионис
В остальных ролях: Елизавета Уварова, Николай Кузьмин, Валерий Носик, Виктор Авдюшко, Пантелеймон Крымов
В эпизодах: Б. Новиков, Л. Каневский, Б. Бейшеналиев, В. Кашпур, Л. Малиновская, Е. Васильева, Л. Безуглая, А. Бендова, Л. Аржаникова, В. Брылеев, Галина Макарова, Мария Захаревич, А. Барановский, С. Хацкевич, Владимир Короткевич, О. Каравайчук, Я. Ленц, М. Давидович
Описание:
Привлекающая внимание оригинальным взглядом создателей на события XVI века, наполненная горькой иронией, драматизмом, и, одновременно, юмором и весельем историческая трагикомедия по роману Владимира Короткевича "Хрыстос прызямліўся ў Гародні" (1966), который исследователи называют энциклопедией народной жизни Беларуси XVI века, ставя его в один ряд с "Гаргантюа" Франсуа Рабле и "Тилем Уленшпигелем" Шарля де Костера.
В давние времена голода и татарских набегов лицедей-сатирик Юрась Братчик появляется перед народом в облике Христа, и народ верит в чудо. Это событие решает использовать хитрый монах Босяцкий. Арестованных по приказу кардинала, загримировав и одев в соответствующие одежды, Юрася-Христоса и его друзей-"апостолов" выводят к народу, чтобы те свершили чудо, а через некоторое время — "вознеслись". Однако новоявленные апостолы сбегают из города...
В советское время фильм был "отложен на полку" до 1989 года: фильм вышел ограниченным тиражом, был перемонтирован, поменял название на "Христос приземлился в Гродно" и успешно ушёл в корзину. В годы перестройки режиссёру позволили вернуть авторский монтаж — материалы фильма сохранила монтажёр фильма Вета Коляденко — и авторское название. Фильм вышел под изначальным названием "Житие и вознесение Юрася Братчика".-Доп. информация: запись с IPTV в Беларуси, ремукс записи потока *.ts в *.mkv программой VideoReDo.
Производство: "Беларусьфильм"
Автор сценария: Владимир Короткевич
Оператор-постановщик: Анатолий Заболоцкий
Композитор: Олег Каравайчук
Художники-постановщики: Шавкат Абдусаламов, Евгений Игнатьев
Семпл: http://multi-up.com/1144143
Качество видео: DVB
Формат файла: MKV
Видео: AVC (H264), 720x576@785x576 (4:3), анаморф, 25 fps, 3095 kbps
Аудио: MP2, 192 kbps, 2 channels, 48 kHz

MediaInfo

GeneralUnique ID : 269702519975969478427444957197096068843 (0xCAE6D0E0C7319DB1672A39E63CB626EB)Complete name : C:\Hamlet.dvbts\Житие и вознесение Юрася Братчика.mkvFormat : MatroskaFormat version : Version 2File size : 1.89 GiBDuration : 1h 20mnOverall bit rate : 3 354 KbpsWriting application : Lavf54.63.104Writing library : Lavf54.63.104
VideoID : 1Format : AVCFormat/Info : Advanced Video CodecFormat profile : High@L3.0Format settings, CABAC : YesFormat settings, ReFrames : 4 framesCodec ID : V_MPEG4/ISO/AVCDuration : 1h 20mnBit rate : 3 095 KbpsWidth : 720 pixelsHeight : 576 pixelsDisplay aspect ratio : 4:3Original display aspect ratio : 4:3Frame rate mode : ConstantFrame rate : 25.000 fpsStandard : ComponentColor space : YUVChroma subsampling : 4:2:0Bit depth : 8 bitsScan type : InterlacedScan order : Top Field FirstBits/(Pixel*Frame) : 0.299Stream size : 1.74 GiB (92%)Default : NoForced : NoColor primaries : BT.601 PALTransfer characteristics : BT.470 System B, BT.470 System GMatrix coefficients : BT.601
AudioID : 2Format : MPEG AudioFormat version : Version 1Format profile : Layer 2Codec ID : A_MPEG/L2Codec ID/Hint : MP2Duration : 1h 20mnBit rate mode : ConstantBit rate : 192 KbpsChannel(s) : 2 channelsSampling rate : 48.0 KHzCompression mode : LossyDelay relative to video : -120msStream size : 111 MiB (6%)Language : EnglishDefault : YesForced : No

Источник: torrentc

[url=viewtopic.php?t=4498571]http://torrentc/forum/viewtopic.php?t=4498571[/url]


[islamvillage.com]_t_5369014.torrent
Торрент: Зарегистрирован ·  [ 2017-03-08 22:12 ] ·  5fcb5467d67bf240ba0f7bd801de347c1451a902

19 KB

Статус: проверено
Скачан: 1 раз
Размер: 1.89 GB
Оценка: 
(Голосов: 0)
Сказали спасибо: 0  Спасибо
Похожие темы
[Профиль]    [ЛС]
Показать сообщения:    
Ответить на тему

Текущее время: Сегодня 21:09

Часовой пояс: GMT + 7



Вы не можете начинать темы
Вы не можете отвечать на сообщения
Вы не можете редактировать свои сообщения
Вы не можете удалять свои сообщения
Вы не можете голосовать в опросах
Вы не можете прикреплять файлы к сообщениям
Вы можете скачивать файлы


HidupMusik | The Upside | Latest Update