Искатели (Золото атамана Перекати-поле) (Александр Трофимов) [2017, Документальный, история, расследование, приключения, IPTVRip]

Ответить на тему
Статистика раздачи [Обновить пиров]
Размер:  582 MB   |    Зарегистрирован:  1 год 9 месяцев   |    Скачан:  0 раз

Полного источника не было: Никогда

 
   
 
 
 
Автор Сообщение

islamvillage.com

Создавать темы 20-Мар-2017 09:09

[Цитировать]

Искатели (Золото атамана Перекати-поле)
Год выхода: 2017
Страна: Россия, ООО "Студия Просветительских Фильмов"
Жанр: Документальный, история, расследование, приключения
Продолжительность: 00:43:57
Перевод: Не требуется
Русские субтитры: нет
Режиссер: Александр Трофимов
Описание: Несколько лет назад в псковских газетах появилась информация, что наконец-то обнаружились следы тайника, в котором спрятано золото деятеля Гражданской войны, атамана Булак-Балаховича по кличке "Перекати-поле". Сокровища атамана, сражавшегося то на стороне белых, то на стороне красных, и всякий раз с выгодой для себя, искали много десятилетий. И вот – долгожданная удача...
Но действительно ли на берегу реки Вруда атаман зарыл огромную бочку, доверху наполненную золотом? Или это всего лишь одна из легенд Гражданской? Быть может, это было вовсе не золото? Существует ли вообще клад Балаховича, и где искать несметные сокровища атамана Перекати-поле? Ведущий: Николай Свистун.
качество: IPTVRip
формат: AVI
Видео: 704x400 (1.76:1), 25 fps, XviD build 73 ~1649 kbps avg, 0.23 bit/pixel
Аудио: 48 kHz, AC3 Dolby Digital, 2/0 (L,R) ch, ~192.00 kbps avg

MediaInfo

Полное имя : D:\gotov\Искатели.Золото атамана Перекати-поле.2017.IPTVRip.aviФормат файла : AVIФормат файла/Информация : Audio Video InterleaveРазмер файла : 582 МбайтПродолжительность : 43 м. 57 с.Общий поток : 1852 Кбит/секПрограмма кодирования : VirtualDubMod 1.5.10.3 | www.virtualdub-fr.org || (build 2550/release)Библиотека кодирования : VirtualDubMod build 2550/release
ВидеоИдентификатор : 0Формат файла : MPEG-4 VisualПрофиль формата : Advanced Simple@L5Параметр BVOP формата : 2Параметр QPel формата : НетПараметр GMC формата : Без точки переходаПараметр матрицы формата : Default (MPEG)Идентификатор кодека : XVIDИдентификатор кодека/Подсказка : XviDПродолжительность : 43 м. 57 с.Битрейт : 1650 Кбит/секШирина : 704 пикселяВысота : 400 пикселейСоотношение сторон : 16:9Частота кадров : 25,000 кадров/секЦветовое пространство : YUVСубдискретизация насыщенности : 4:2:0Битовая глубина : 8 битТип развёртки : ПрогрессивнаяМетод сжатия : С потерямиБит/(Пиксели*Кадры) : 0.234Размер потока : 519 Мбайт (89%)Библиотека кодирования : XviD 73
АудиоИдентификатор : 1Формат файла : AC-3Формат файла/Информация : Audio Coding 3Расширение режима : CM (complete main)Параметр Endianness формата : BigИдентификатор кодека : 2000Продолжительность : 43 м. 57 с.Вид битрейта : ПостоянныйБитрейт : 192 Кбит/секКаналы : 2 каналаРасположение каналов : Front: L RЧастота : 48,0 КГцЧастота кадров : 31,250 кадров/сек (1536 spf)Метод сжатия : С потерямиРазмер потока : 60,4 Мбайт (10%)Выравнивание : Разделение по промежуткамПродолжительность промежутка : 40 мс. (1,00 видеокадр)Время предзагрузки промежутка : 500 мс.

Скриншоты



[islamvillage.com]_t_5370488.torrent
Торрент: Зарегистрирован ·  [ 2017-03-20 09:06 ] ·  65dd639c38acd34848efe37171e2d3c3b5c8055e

6 KB

Статус: проверено
Скачан: 0 раз
Размер: 582 MB
Оценка: 
(Голосов: 0)
Сказали спасибо: 0  Спасибо
Похожие темы
[Профиль]    [ЛС]
Показать сообщения:    
Ответить на тему

Текущее время: Сегодня 18:42

Часовой пояс: GMT + 7



Вы не можете начинать темы
Вы не можете отвечать на сообщения
Вы не можете редактировать свои сообщения
Вы не можете удалять свои сообщения
Вы не можете голосовать в опросах
Вы не можете прикреплять файлы к сообщениям
Вы можете скачивать файлы


Historical Memorabilia | Inu to Hasami wa Tsukaiyou | Backyard Hero Font