[webdesign-master] OpenCart - Создание современного интернет-магазина от А до Я. [2017, RUS]

Ответить на тему
Статистика раздачи [Обновить пиров]
Размер:  9.84 GB   |    Зарегистрирован:  1 год 10 месяцев   |    Скачан:  3 раза

Полного источника не было: 10 месяцев 17 дней

 
   
 
 
 
Автор Сообщение

islamvillage.com

Создавать темы 08-Апр-2017 15:26

[Цитировать]

OpenCart - Создание современного интернет-магазина от А до Я.
Год выхода: 2017
Производитель: webdesign-master
Сайт производителя: http://webdesign-master.ru/_lp/opencart/
Автор: webdesign-master
Продолжительность: 11:54:04
Тип раздаваемого материала: Видеоурок
Язык: Русский
Описание: Видеокурс от автора webDesign Master:
Первый профессиональный
курс по созданию интернет-магазина
на CMS OpenCart от А до Я.
Файлы примеров: присутствуют
Видео: AVC, 1280x720 (16:9), 60,000 кадров/сек, 2361 Кбит/сек,
Аудио: AAC, 48 KHz, 192 Кбит/сек, 2CH LC

MediaInfo

Общее
Полное имя : D:\Видео\Opencart\opencart2\video\1 урок - Знакомство с проектом, референсы.mp4
Формат файла : MPEG-4
Профиль формата : Base Media
Идентификатор кодека : isom (isom/iso2/avc1/mp41)
Размер файла : 127 Мбайт
Продолжительность : 6 м. 55 с.
Общий поток : 2563 Кбит/сек
Дата кодирования : UTC 2017-01-16 19:47:57
Дата пометки : UTC 2017-01-16 19:47:57
Программа кодирования : Lavf57.40.101
Видео
Идентификатор : 2
Формат файла : AVC
Формат файла/Информация : Advanced Video Codec
Профиль формата : Baseline@L3.2
Параметр CABAC формата : Нет
Параметр ReFrames формата : 2 кадра
Параметр GOP формата : M=1, N=25
Идентификатор кодека : avc1
Идентификатор кодека/Информация : Advanced Video Coding
Продолжительность : 6 м. 55 с.
Битрейт : 2361 Кбит/сек
Ширина : 1280 пикселей
Высота : 720 пикселей
Соотношение сторон : 16:9
Режим частоты кадров : Постоянный
Частота кадров : 60,000 кадров/сек
Цветовое пространство : YUV
Субдискретизация насыщенности : 4:2:0
Битовая глубина : 8 бит
Тип развёртки : Прогрессивная
Бит/(Пиксели*Кадры) : 0.043
Размер потока : 117 Мбайт (92%)
Дата кодирования : UTC 2017-01-16 19:47:57
Дата пометки : UTC 2017-01-16 19:47:57
Аудио
Идентификатор : 1
Формат файла : AAC
Формат файла/Информация : Advanced Audio Codec
Профиль формата : LC
Идентификатор кодека : 40
Продолжительность : 6 м. 55 с.
Duration_LastFrame : -9 мс.
Вид битрейта : Постоянный
Битрейт : 192 Кбит/сек
Каналы : 2 канала
Расположение каналов : Front: L R
Частота : 48,0 КГц
Частота кадров : 46,875 кадров/сек (1024 spf)
Метод сжатия : С потерями
Размер потока : 9,51 Мбайт (7%)
Default : Да
AlternateGroup/String : 1
Дата кодирования : UTC 2017-01-16 19:47:57
Дата пометки : UTC 2017-01-16 19:47:57
Общее
Полное имя : D:\Видео\Opencart\opencart2\video\10 урок - Стилизация списка категорий.mp4
Формат файла : MPEG-4
Профиль формата : Base Media
Идентификатор кодека : isom (isom/iso2/avc1/mp41)
Размер файла : 207 Мбайт
Продолжительность : 12 м. 56 с.
Общий поток : 2234 Кбит/сек
Дата кодирования : UTC 2016-11-14 22:02:43
Дата пометки : UTC 2016-11-14 22:02:43
Программа кодирования : Lavf57.40.101
Видео
Идентификатор : 2
Формат файла : AVC
Формат файла/Информация : Advanced Video Codec
Профиль формата : Baseline@L3.2
Параметр CABAC формата : Нет
Параметр ReFrames формата : 2 кадра
Параметр GOP формата : M=1, N=25
Идентификатор кодека : avc1
Идентификатор кодека/Информация : Advanced Video Coding
Продолжительность : 12 м. 56 с.
Битрейт : 2033 Кбит/сек
Ширина : 1280 пикселей
Высота : 720 пикселей
Соотношение сторон : 16:9
Режим частоты кадров : Постоянный
Частота кадров : 60,000 кадров/сек
Цветовое пространство : YUV
Субдискретизация насыщенности : 4:2:0
Битовая глубина : 8 бит
Тип развёртки : Прогрессивная
Бит/(Пиксели*Кадры) : 0.037
Размер потока : 188 Мбайт (91%)
Дата кодирования : UTC 2016-11-14 22:02:43
Дата пометки : UTC 2016-11-14 22:02:43
Аудио
Идентификатор : 1
Формат файла : AAC
Формат файла/Информация : Advanced Audio Codec
Профиль формата : LC
Идентификатор кодека : 40
Продолжительность : 12 м. 56 с.
Duration_LastFrame : -9 мс.
Вид битрейта : Постоянный
Битрейт : 192 Кбит/сек
Каналы : 2 канала
Расположение каналов : Front: L R
Частота : 48,0 КГц
Частота кадров : 46,875 кадров/сек (1024 spf)
Метод сжатия : С потерями
Размер потока : 17,8 Мбайт (9%)
Default : Да
AlternateGroup/String : 1
Дата кодирования : UTC 2016-11-14 22:02:43
Дата пометки : UTC 2016-11-14 22:02:43
Общее
Полное имя : D:\Видео\Opencart\opencart2\video\11 урок - Стилизация и настройка списка товаров.mp4
Формат файла : MPEG-4
Профиль формата : Base Media
Идентификатор кодека : isom (isom/iso2/avc1/mp41)
Размер файла : 1,00 Гбайт
Продолжительность : 1 ч. 24 м.
Общий поток : 1686 Кбит/сек
Дата кодирования : UTC 2017-01-15 09:52:11
Дата пометки : UTC 2017-01-15 09:52:11
Программа кодирования : Lavf57.40.101
Видео
Идентификатор : 2
Формат файла : AVC
Формат файла/Информация : Advanced Video Codec
Профиль формата : Baseline@L3.2
Параметр CABAC формата : Нет
Параметр ReFrames формата : 2 кадра
Параметр GOP формата : M=1, N=25
Идентификатор кодека : avc1
Идентификатор кодека/Информация : Advanced Video Coding
Продолжительность : 1 ч. 24 м.
Битрейт : 1485 Кбит/сек
Ширина : 1280 пикселей
Высота : 720 пикселей
Соотношение сторон : 16:9
Режим частоты кадров : Постоянный
Частота кадров : 60,000 кадров/сек
Цветовое пространство : YUV
Субдискретизация насыщенности : 4:2:0
Битовая глубина : 8 бит
Тип развёртки : Прогрессивная
Бит/(Пиксели*Кадры) : 0.027
Размер потока : 902 Мбайт (88%)
Дата кодирования : UTC 2017-01-15 09:52:11
Дата пометки : UTC 2017-01-15 09:52:11
Аудио
Идентификатор : 1
Формат файла : AAC
Формат файла/Информация : Advanced Audio Codec
Профиль формата : LC
Идентификатор кодека : 40
Продолжительность : 1 ч. 24 м.
Duration_LastFrame : -9 мс.
Вид битрейта : Постоянный
Битрейт : 192 Кбит/сек
Каналы : 2 канала
Расположение каналов : Front: L R
Частота : 48,0 КГц
Частота кадров : 46,875 кадров/сек (1024 spf)
Метод сжатия : С потерями
Размер потока : 117 Мбайт (11%)
Default : Да
AlternateGroup/String : 1
Дата кодирования : UTC 2017-01-15 09:52:11
Дата пометки : UTC 2017-01-15 09:52:11
Общее
Полное имя : D:\Видео\Opencart\opencart2\video\12 урок - Создание своего модуля, оформление сайдбара.mp4
Формат файла : MPEG-4
Профиль формата : Base Media
Идентификатор кодека : isom (isom/iso2/avc1/mp41)
Размер файла : 1,21 Гбайт
Продолжительность : 1 ч. 33 м.
Общий поток : 1855 Кбит/сек
Дата кодирования : UTC 2017-01-15 17:15:30
Дата пометки : UTC 2017-01-15 17:15:30
Программа кодирования : Lavf57.40.101
Видео
Идентификатор : 2
Формат файла : AVC
Формат файла/Информация : Advanced Video Codec
Профиль формата : Baseline@L3.2
Параметр CABAC формата : Нет
Параметр ReFrames формата : 2 кадра
Параметр GOP формата : M=1, N=25
Идентификатор кодека : avc1
Идентификатор кодека/Информация : Advanced Video Coding
Продолжительность : 1 ч. 33 м.
Битрейт : 1654 Кбит/сек
Ширина : 1280 пикселей
Высота : 720 пикселей
Соотношение сторон : 16:9
Режим частоты кадров : Постоянный
Частота кадров : 60,000 кадров/сек
Цветовое пространство : YUV
Субдискретизация насыщенности : 4:2:0
Битовая глубина : 8 бит
Тип развёртки : Прогрессивная
Бит/(Пиксели*Кадры) : 0.030
Размер потока : 1,08 Гбайт (89%)
Дата кодирования : UTC 2017-01-15 17:15:30
Дата пометки : UTC 2017-01-15 17:15:30
Аудио
Идентификатор : 1
Формат файла : AAC
Формат файла/Информация : Advanced Audio Codec
Профиль формата : LC
Идентификатор кодека : 40
Продолжительность : 1 ч. 33 м.
Duration_LastFrame : -9 мс.
Вид битрейта : Постоянный
Битрейт : 192 Кбит/сек
Каналы : 2 канала
Расположение каналов : Front: L R
Частота : 48,0 КГц
Частота кадров : 46,875 кадров/сек (1024 spf)
Метод сжатия : С потерями
Размер потока : 129 Мбайт (10%)
Default : Да
AlternateGroup/String : 1
Дата кодирования : UTC 2017-01-15 17:15:30
Дата пометки : UTC 2017-01-15 17:15:30
Общее
Полное имя : D:\Видео\Opencart\opencart2\video\13 урок - Посадка подвала сайта.mp4
Формат файла : MPEG-4
Профиль формата : Base Media
Идентификатор кодека : isom (isom/iso2/avc1/mp41)
Размер файла : 700 Мбайт
Продолжительность : 55 м. 42 с.
Общий поток : 1757 Кбит/сек
Дата кодирования : UTC 2017-01-16 11:03:41
Дата пометки : UTC 2017-01-16 11:03:41
Программа кодирования : Lavf57.40.101
Видео
Идентификатор : 2
Формат файла : AVC
Формат файла/Информация : Advanced Video Codec
Профиль формата : Baseline@L3.2
Параметр CABAC формата : Нет
Параметр ReFrames формата : 2 кадра
Параметр GOP формата : M=1, N=25
Идентификатор кодека : avc1
Идентификатор кодека/Информация : Advanced Video Coding
Продолжительность : 55 м. 42 с.
Битрейт : 1556 Кбит/сек
Ширина : 1280 пикселей
Высота : 720 пикселей
Соотношение сторон : 16:9
Режим частоты кадров : Постоянный
Частота кадров : 60,000 кадров/сек
Цветовое пространство : YUV
Субдискретизация насыщенности : 4:2:0
Битовая глубина : 8 бит
Тип развёртки : Прогрессивная
Бит/(Пиксели*Кадры) : 0.028
Размер потока : 620 Мбайт (89%)
Дата кодирования : UTC 2017-01-16 11:03:41
Дата пометки : UTC 2017-01-16 11:03:41
Аудио
Идентификатор : 1
Формат файла : AAC
Формат файла/Информация : Advanced Audio Codec
Профиль формата : LC
Идентификатор кодека : 40
Продолжительность : 55 м. 42 с.
Duration_LastFrame : -9 мс.
Вид битрейта : Постоянный
Битрейт : 192 Кбит/сек
Каналы : 2 канала
Расположение каналов : Front: L R
Частота : 48,0 КГц
Частота кадров : 46,875 кадров/сек (1024 spf)
Метод сжатия : С потерями
Размер потока : 76,5 Мбайт (11%)
Default : Да
AlternateGroup/String : 1
Дата кодирования : UTC 2017-01-16 11:03:41
Дата пометки : UTC 2017-01-16 11:03:41
Общее
Полное имя : D:\Видео\Opencart\opencart2\video\14 урок - Всплывающие формы.mp4
Формат файла : MPEG-4
Профиль формата : Base Media
Идентификатор кодека : isom (isom/iso2/avc1/mp41)
Размер файла : 784 Мбайт
Продолжительность : 57 м. 53 с.
Общий поток : 1894 Кбит/сек
Дата кодирования : UTC 2017-01-16 13:17:10
Дата пометки : UTC 2017-01-16 13:17:10
Программа кодирования : Lavf57.40.101
Видео
Идентификатор : 2
Формат файла : AVC
Формат файла/Информация : Advanced Video Codec
Профиль формата : Baseline@L3.2
Параметр CABAC формата : Нет
Параметр ReFrames формата : 2 кадра
Параметр GOP формата : M=1, N=25
Идентификатор кодека : avc1
Идентификатор кодека/Информация : Advanced Video Coding
Продолжительность : 57 м. 53 с.
Битрейт : 1693 Кбит/сек
Ширина : 1280 пикселей
Высота : 720 пикселей
Соотношение сторон : 16:9
Режим частоты кадров : Постоянный
Частота кадров : 60,000 кадров/сек
Цветовое пространство : YUV
Субдискретизация насыщенности : 4:2:0
Битовая глубина : 8 бит
Тип развёртки : Прогрессивная
Бит/(Пиксели*Кадры) : 0.031
Размер потока : 701 Мбайт (89%)
Дата кодирования : UTC 2017-01-16 13:17:10
Дата пометки : UTC 2017-01-16 13:17:10
Аудио
Идентификатор : 1
Формат файла : AAC
Формат файла/Информация : Advanced Audio Codec
Профиль формата : LC
Идентификатор кодека : 40
Продолжительность : 57 м. 53 с.
Duration_LastFrame : -9 мс.
Вид битрейта : Постоянный
Битрейт : 192 Кбит/сек
Каналы : 2 канала
Расположение каналов : Front: L R
Частота : 48,0 КГц
Частота кадров : 46,875 кадров/сек (1024 spf)
Метод сжатия : С потерями
Размер потока : 79,5 Мбайт (10%)
Default : Да
AlternateGroup/String : 1
Дата кодирования : UTC 2017-01-16 13:17:10
Дата пометки : UTC 2017-01-16 13:17:10
Общее
Полное имя : D:\Видео\Opencart\opencart2\video\15 урок - Создание и посадка страницы категории.mp4
Формат файла : MPEG-4
Профиль формата : Base Media
Идентификатор кодека : isom (isom/iso2/avc1/mp41)
Размер файла : 369 Мбайт
Продолжительность : 30 м. 5 с.
Общий поток : 1714 Кбит/сек
Дата кодирования : UTC 2017-01-16 15:38:55
Дата пометки : UTC 2017-01-16 15:38:55
Программа кодирования : Lavf57.40.101
Видео
Идентификатор : 2
Формат файла : AVC
Формат файла/Информация : Advanced Video Codec
Профиль формата : Baseline@L3.2
Параметр CABAC формата : Нет
Параметр ReFrames формата : 2 кадра
Параметр GOP формата : M=1, N=25
Идентификатор кодека : avc1
Идентификатор кодека/Информация : Advanced Video Coding
Продолжительность : 30 м. 5 с.
Битрейт : 1513 Кбит/сек
Ширина : 1280 пикселей
Высота : 720 пикселей
Соотношение сторон : 16:9
Режим частоты кадров : Постоянный
Частота кадров : 60,000 кадров/сек
Цветовое пространство : YUV
Субдискретизация насыщенности : 4:2:0
Битовая глубина : 8 бит
Тип развёртки : Прогрессивная
Бит/(Пиксели*Кадры) : 0.027
Размер потока : 326 Мбайт (88%)
Дата кодирования : UTC 2017-01-16 15:38:55
Дата пометки : UTC 2017-01-16 15:38:55
Аудио
Идентификатор : 1
Формат файла : AAC
Формат файла/Информация : Advanced Audio Codec
Профиль формата : LC
Идентификатор кодека : 40
Продолжительность : 30 м. 5 с.
Duration_LastFrame : -9 мс.
Вид битрейта : Постоянный
Битрейт : 192 Кбит/сек
Каналы : 2 канала
Расположение каналов : Front: L R
Частота : 48,0 КГц
Частота кадров : 46,875 кадров/сек (1024 spf)
Метод сжатия : С потерями
Размер потока : 41,3 Мбайт (11%)
Default : Да
AlternateGroup/String : 1
Дата кодирования : UTC 2017-01-16 15:38:55
Дата пометки : UTC 2017-01-16 15:38:55
Общее
Полное имя : D:\Видео\Opencart\opencart2\video\16 урок - Посадка страницы продукта и стилизация остальных страниц сайта.mp4
Формат файла : MPEG-4
Профиль формата : Base Media
Идентификатор кодека : isom (isom/iso2/avc1/mp41)
Размер файла : 823 Мбайт
Продолжительность : 56 м. 39 с.
Общий поток : 2031 Кбит/сек
Дата кодирования : UTC 2017-01-16 17:51:41
Дата пометки : UTC 2017-01-16 17:51:41
Программа кодирования : Lavf57.40.101
Видео
Идентификатор : 2
Формат файла : AVC
Формат файла/Информация : Advanced Video Codec
Профиль формата : Baseline@L3.2
Параметр CABAC формата : Нет
Параметр ReFrames формата : 2 кадра
Параметр GOP формата : M=1, N=25
Идентификатор кодека : avc1
Идентификатор кодека/Информация : Advanced Video Coding
Продолжительность : 56 м. 39 с.
Битрейт : 1830 Кбит/сек
Ширина : 1280 пикселей
Высота : 720 пикселей
Соотношение сторон : 16:9
Режим частоты кадров : Постоянный
Частота кадров : 60,000 кадров/сек
Цветовое пространство : YUV
Субдискретизация насыщенности : 4:2:0
Битовая глубина : 8 бит
Тип развёртки : Прогрессивная
Бит/(Пиксели*Кадры) : 0.033
Размер потока : 742 Мбайт (90%)
Дата кодирования : UTC 2017-01-16 17:51:41
Дата пометки : UTC 2017-01-16 17:51:41
Аудио
Идентификатор : 1
Формат файла : AAC
Формат файла/Информация : Advanced Audio Codec
Профиль формата : LC
Идентификатор кодека : 40
Продолжительность : 56 м. 39 с.
Duration_LastFrame : -9 мс.
Вид битрейта : Постоянный
Битрейт : 192 Кбит/сек
Каналы : 2 канала
Расположение каналов : Front: L R
Частота : 48,0 КГц
Частота кадров : 46,875 кадров/сек (1024 spf)
Метод сжатия : С потерями
Размер потока : 77,8 Мбайт (9%)
Default : Да
AlternateGroup/String : 1
Дата кодирования : UTC 2017-01-16 17:51:41
Дата пометки : UTC 2017-01-16 17:51:41
Общее
Полное имя : D:\Видео\Opencart\opencart2\video\17 урок - Размещение проекта на хостинге, деплой изменений.mp4
Формат файла : MPEG-4
Профиль формата : Base Media
Идентификатор кодека : isom (isom/iso2/avc1/mp41)
Размер файла : 203 Мбайт
Продолжительность : 11 м. 57 с.
Общий поток : 2376 Кбит/сек
Дата кодирования : UTC 2017-01-16 19:09:42
Дата пометки : UTC 2017-01-16 19:09:42
Программа кодирования : Lavf57.40.101
Видео
Идентификатор : 2
Формат файла : AVC
Формат файла/Информация : Advanced Video Codec
Профиль формата : Baseline@L3.2
Параметр CABAC формата : Нет
Параметр ReFrames формата : 2 кадра
Параметр GOP формата : M=1, N=25
Идентификатор кодека : avc1
Идентификатор кодека/Информация : Advanced Video Coding
Продолжительность : 11 м. 57 с.
Битрейт : 2175 Кбит/сек
Ширина : 1280 пикселей
Высота : 720 пикселей
Соотношение сторон : 16:9
Режим частоты кадров : Постоянный
Частота кадров : 60,000 кадров/сек
Цветовое пространство : YUV
Субдискретизация насыщенности : 4:2:0
Битовая глубина : 8 бит
Тип развёртки : Прогрессивная
Бит/(Пиксели*Кадры) : 0.039
Размер потока : 186 Мбайт (92%)
Дата кодирования : UTC 2017-01-16 19:09:42
Дата пометки : UTC 2017-01-16 19:09:42
Аудио
Идентификатор : 1
Формат файла : AAC
Формат файла/Информация : Advanced Audio Codec
Профиль формата : LC
Идентификатор кодека : 40
Продолжительность : 11 м. 57 с.
Duration_LastFrame : -9 мс.
Вид битрейта : Постоянный
Битрейт : 192 Кбит/сек
Каналы : 2 канала
Расположение каналов : Front: L R
Частота : 48,0 КГц
Частота кадров : 46,875 кадров/сек (1024 spf)
Метод сжатия : С потерями
Размер потока : 16,4 Мбайт (8%)
Default : Да
AlternateGroup/String : 1
Дата кодирования : UTC 2017-01-16 19:09:42
Дата пометки : UTC 2017-01-16 19:09:42
Общее
Полное имя : D:\Видео\Opencart\opencart2\video\18 урок - Заключение.mp4
Формат файла : MPEG-4
Профиль формата : Base Media
Идентификатор кодека : isom (isom/iso2/avc1/mp41)
Размер файла : 21,2 Мбайт
Продолжительность : 1 м. 15 с.
Общий поток : 2341 Кбит/сек
Дата кодирования : UTC 2017-01-16 19:24:14
Дата пометки : UTC 2017-01-16 19:24:14
Программа кодирования : Lavf57.40.101
Видео
Идентификатор : 2
Формат файла : AVC
Формат файла/Информация : Advanced Video Codec
Профиль формата : Baseline@L3.2
Параметр CABAC формата : Нет
Параметр ReFrames формата : 2 кадра
Параметр GOP формата : M=1, N=25
Идентификатор кодека : avc1
Идентификатор кодека/Информация : Advanced Video Coding
Продолжительность : 1 м. 15 с.
Битрейт : 2140 Кбит/сек
Ширина : 1280 пикселей
Высота : 720 пикселей
Соотношение сторон : 16:9
Режим частоты кадров : Постоянный
Частота кадров : 60,000 кадров/сек
Цветовое пространство : YUV
Субдискретизация насыщенности : 4:2:0
Битовая глубина : 8 бит
Тип развёртки : Прогрессивная
Бит/(Пиксели*Кадры) : 0.039
Размер потока : 19,4 Мбайт (91%)
Дата кодирования : UTC 2017-01-16 19:24:14
Дата пометки : UTC 2017-01-16 19:24:14
Аудио
Идентификатор : 1
Формат файла : AAC
Формат файла/Информация : Advanced Audio Codec
Профиль формата : LC
Идентификатор кодека : 40
Продолжительность : 1 м. 15 с.
Duration_LastFrame : -9 мс.
Вид битрейта : Постоянный
Битрейт : 192 Кбит/сек
Каналы : 2 канала
Расположение каналов : Front: L R
Частота : 48,0 КГц
Частота кадров : 46,875 кадров/сек (1024 spf)
Метод сжатия : С потерями
Размер потока : 1,74 Мбайт (8%)
Default : Да
AlternateGroup/String : 1
Дата кодирования : UTC 2017-01-16 19:24:14
Дата пометки : UTC 2017-01-16 19:24:14
Общее
Полное имя : D:\Видео\Opencart\opencart2\video\2 урок - Дизайн главной страницы.mp4
Формат файла : MPEG-4
Профиль формата : Base Media
Идентификатор кодека : isom (isom/iso2/avc1/mp41)
Размер файла : 329 Мбайт
Продолжительность : 21 м. 12 с.
Общий поток : 2168 Кбит/сек
Дата кодирования : UTC 2016-11-14 22:02:46
Дата пометки : UTC 2016-11-14 22:02:46
Программа кодирования : Lavf57.40.101
Видео
Идентификатор : 2
Формат файла : AVC
Формат файла/Информация : Advanced Video Codec
Профиль формата : Baseline@L3.2
Параметр CABAC формата : Нет
Параметр ReFrames формата : 2 кадра
Параметр GOP формата : M=1, N=25
Идентификатор кодека : avc1
Идентификатор кодека/Информация : Advanced Video Coding
Продолжительность : 21 м. 12 с.
Битрейт : 1967 Кбит/сек
Ширина : 1280 пикселей
Высота : 720 пикселей
Соотношение сторон : 16:9
Режим частоты кадров : Постоянный
Частота кадров : 60,000 кадров/сек
Цветовое пространство : YUV
Субдискретизация насыщенности : 4:2:0
Битовая глубина : 8 бит
Тип развёртки : Прогрессивная
Бит/(Пиксели*Кадры) : 0.036
Размер потока : 299 Мбайт (91%)
Дата кодирования : UTC 2016-11-14 22:02:46
Дата пометки : UTC 2016-11-14 22:02:46
Аудио
Идентификатор : 1
Формат файла : AAC
Формат файла/Информация : Advanced Audio Codec
Профиль формата : LC
Идентификатор кодека : 40
Продолжительность : 21 м. 12 с.
Duration_LastFrame : -9 мс.
Вид битрейта : Постоянный
Битрейт : 192 Кбит/сек
Каналы : 2 канала
Расположение каналов : Front: L R
Частота : 48,0 КГц
Частота кадров : 46,875 кадров/сек (1024 spf)
Метод сжатия : С потерями
Размер потока : 29,1 Мбайт (9%)
Default : Да
AlternateGroup/String : 1
Дата кодирования : UTC 2016-11-14 22:02:46
Дата пометки : UTC 2016-11-14 22:02:46
Общее
Полное имя : D:\Видео\Opencart\opencart2\video\3 урок - Дизайн страницы категории.mp4
Формат файла : MPEG-4
Профиль формата : Base Media
Идентификатор кодека : isom (isom/iso2/avc1/mp41)
Размер файла : 231 Мбайт
Продолжительность : 14 м. 5 с.
Общий поток : 2294 Кбит/сек
Дата кодирования : UTC 2016-11-14 22:02:52
Дата пометки : UTC 2016-11-14 22:02:52
Программа кодирования : Lavf57.40.101
Видео
Идентификатор : 2
Формат файла : AVC
Формат файла/Информация : Advanced Video Codec
Профиль формата : Baseline@L3.2
Параметр CABAC формата : Нет
Параметр ReFrames формата : 2 кадра
Параметр GOP формата : M=1, N=25
Идентификатор кодека : avc1
Идентификатор кодека/Информация : Advanced Video Coding
Продолжительность : 14 м. 5 с.
Битрейт : 2093 Кбит/сек
Ширина : 1280 пикселей
Высота : 720 пикселей
Соотношение сторон : 16:9
Режим частоты кадров : Постоянный
Частота кадров : 60,000 кадров/сек
Цветовое пространство : YUV
Субдискретизация насыщенности : 4:2:0
Битовая глубина : 8 бит
Тип развёртки : Прогрессивная
Бит/(Пиксели*Кадры) : 0.038
Размер потока : 211 Мбайт (91%)
Дата кодирования : UTC 2016-11-14 22:02:52
Дата пометки : UTC 2016-11-14 22:02:52
Аудио
Идентификатор : 1
Формат файла : AAC
Формат файла/Информация : Advanced Audio Codec
Профиль формата : LC
Идентификатор кодека : 40
Продолжительность : 14 м. 5 с.
Duration_LastFrame : -9 мс.
Вид битрейта : Постоянный
Битрейт : 192 Кбит/сек
Каналы : 2 канала
Расположение каналов : Front: L R
Частота : 48,0 КГц
Частота кадров : 46,875 кадров/сек (1024 spf)
Метод сжатия : С потерями
Размер потока : 19,4 Мбайт (8%)
Default : Да
AlternateGroup/String : 1
Дата кодирования : UTC 2016-11-14 22:02:52
Дата пометки : UTC 2016-11-14 22:02:52
Общее
Полное имя : D:\Видео\Opencart\opencart2\video\4 урок - Дизайн страницы продукта.mp4
Формат файла : MPEG-4
Профиль формата : Base Media
Идентификатор кодека : isom (isom/iso2/avc1/mp41)
Размер файла : 355 Мбайт
Продолжительность : 29 м. 6 с.
Общий поток : 1703 Кбит/сек
Дата кодирования : UTC 2016-11-14 22:02:57
Дата пометки : UTC 2016-11-14 22:02:57
Программа кодирования : Lavf57.40.101
Видео
Идентификатор : 2
Формат файла : AVC
Формат файла/Информация : Advanced Video Codec
Профиль формата : Baseline@L3.2
Параметр CABAC формата : Нет
Параметр ReFrames формата : 2 кадра
Параметр GOP формата : M=1, N=25
Идентификатор кодека : avc1
Идентификатор кодека/Информация : Advanced Video Coding
Продолжительность : 29 м. 6 с.
Битрейт : 1502 Кбит/сек
Ширина : 1280 пикселей
Высота : 720 пикселей
Соотношение сторон : 16:9
Режим частоты кадров : Постоянный
Частота кадров : 60,000 кадров/сек
Цветовое пространство : YUV
Субдискретизация насыщенности : 4:2:0
Битовая глубина : 8 бит
Тип развёртки : Прогрессивная
Бит/(Пиксели*Кадры) : 0.027
Размер потока : 313 Мбайт (88%)
Дата кодирования : UTC 2016-11-14 22:02:57
Дата пометки : UTC 2016-11-14 22:02:57
Аудио
Идентификатор : 1
Формат файла : AAC
Формат файла/Информация : Advanced Audio Codec
Профиль формата : LC
Идентификатор кодека : 40
Продолжительность : 29 м. 6 с.
Duration_LastFrame : -9 мс.
Вид битрейта : Постоянный
Битрейт : 192 Кбит/сек
Каналы : 2 канала
Расположение каналов : Front: L R
Частота : 48,0 КГц
Частота кадров : 46,875 кадров/сек (1024 spf)
Метод сжатия : С потерями
Размер потока : 40,0 Мбайт (11%)
Default : Да
AlternateGroup/String : 1
Дата кодирования : UTC 2016-11-14 22:02:57
Дата пометки : UTC 2016-11-14 22:02:57
Общее
Полное имя : D:\Видео\Opencart\opencart2\video\5 урок - Дизайн страницы контактов и текстовой страницы.mp4
Формат файла : MPEG-4
Профиль формата : Base Media
Идентификатор кодека : isom (isom/iso2/avc1/mp41)
Размер файла : 131 Мбайт
Продолжительность : 8 м. 6 с.
Общий поток : 2266 Кбит/сек
Дата кодирования : UTC 2016-11-14 22:03:08
Дата пометки : UTC 2016-11-14 22:03:08
Программа кодирования : Lavf57.40.101
Видео
Идентификатор : 2
Формат файла : AVC
Формат файла/Информация : Advanced Video Codec
Профиль формата : Baseline@L3.2
Параметр CABAC формата : Нет
Параметр ReFrames формата : 2 кадра
Параметр GOP формата : M=1, N=25
Идентификатор кодека : avc1
Идентификатор кодека/Информация : Advanced Video Coding
Продолжительность : 8 м. 6 с.
Битрейт : 2065 Кбит/сек
Ширина : 1280 пикселей
Высота : 720 пикселей
Соотношение сторон : 16:9
Режим частоты кадров : Постоянный
Частота кадров : 60,000 кадров/сек
Цветовое пространство : YUV
Субдискретизация насыщенности : 4:2:0
Битовая глубина : 8 бит
Тип развёртки : Прогрессивная
Бит/(Пиксели*Кадры) : 0.037
Размер потока : 120 Мбайт (91%)
Дата кодирования : UTC 2016-11-14 22:03:08
Дата пометки : UTC 2016-11-14 22:03:08
Аудио
Идентификатор : 1
Формат файла : AAC
Формат файла/Информация : Advanced Audio Codec
Профиль формата : LC
Идентификатор кодека : 40
Продолжительность : 8 м. 6 с.
Duration_LastFrame : -9 мс.
Вид битрейта : Постоянный
Битрейт : 192 Кбит/сек
Каналы : 2 канала
Расположение каналов : Front: L R
Частота : 48,0 КГц
Частота кадров : 46,875 кадров/сек (1024 spf)
Метод сжатия : С потерями
Размер потока : 11,1 Мбайт (8%)
Default : Да
AlternateGroup/String : 1
Дата кодирования : UTC 2016-11-14 22:03:08
Дата пометки : UTC 2016-11-14 22:03:08
Общее
Полное имя : D:\Видео\Opencart\opencart2\video\6 урок - Установка OpenCart 2, знакомство с системой, настройка окружения.mp4
Формат файла : MPEG-4
Профиль формата : Base Media
Идентификатор кодека : isom (isom/iso2/avc1/mp41)
Размер файла : 396 Мбайт
Продолжительность : 27 м. 13 с.
Общий поток : 2036 Кбит/сек
Дата кодирования : UTC 2016-11-14 22:03:11
Дата пометки : UTC 2016-11-14 22:03:11
Программа кодирования : Lavf57.40.101
Видео
Идентификатор : 2
Формат файла : AVC
Формат файла/Информация : Advanced Video Codec
Профиль формата : Baseline@L3.2
Параметр CABAC формата : Нет
Параметр ReFrames формата : 2 кадра
Параметр GOP формата : M=1, N=25
Идентификатор кодека : avc1
Идентификатор кодека/Информация : Advanced Video Coding
Продолжительность : 27 м. 13 с.
Битрейт : 1835 Кбит/сек
Ширина : 1280 пикселей
Высота : 720 пикселей
Соотношение сторон : 16:9
Режим частоты кадров : Постоянный
Частота кадров : 60,000 кадров/сек
Цветовое пространство : YUV
Субдискретизация насыщенности : 4:2:0
Битовая глубина : 8 бит
Тип развёртки : Прогрессивная
Бит/(Пиксели*Кадры) : 0.033
Размер потока : 357 Мбайт (90%)
Дата кодирования : UTC 2016-11-14 22:03:11
Дата пометки : UTC 2016-11-14 22:03:11
Аудио
Идентификатор : 1
Формат файла : AAC
Формат файла/Информация : Advanced Audio Codec
Профиль формата : LC
Идентификатор кодека : 40
Продолжительность : 27 м. 13 с.
Duration_LastFrame : -9 мс.
Вид битрейта : Постоянный
Битрейт : 192 Кбит/сек
Каналы : 2 канала
Расположение каналов : Front: L R
Частота : 48,0 КГц
Частота кадров : 46,875 кадров/сек (1024 spf)
Метод сжатия : С потерями
Размер потока : 37,4 Мбайт (9%)
Default : Да
AlternateGroup/String : 1
Дата кодирования : UTC 2016-11-14 22:03:11
Дата пометки : UTC 2016-11-14 22:03:11
Общее
Полное имя : D:\Видео\Opencart\opencart2\video\7 урок - Настройка магазина, наполнение товаров.mp4
Формат файла : MPEG-4
Профиль формата : Base Media
Идентификатор кодека : isom (isom/iso2/avc1/mp41)
Размер файла : 745 Мбайт
Продолжительность : 50 м. 11 с.
Общий поток : 2075 Кбит/сек
Дата кодирования : UTC 2016-11-14 22:03:22
Дата пометки : UTC 2016-11-14 22:03:22
Программа кодирования : Lavf57.40.101
Видео
Идентификатор : 2
Формат файла : AVC
Формат файла/Информация : Advanced Video Codec
Профиль формата : Baseline@L3.2
Параметр CABAC формата : Нет
Параметр ReFrames формата : 2 кадра
Параметр GOP формата : M=1, N=25
Идентификатор кодека : avc1
Идентификатор кодека/Информация : Advanced Video Coding
Продолжительность : 50 м. 11 с.
Битрейт : 1873 Кбит/сек
Ширина : 1280 пикселей
Высота : 720 пикселей
Соотношение сторон : 16:9
Режим частоты кадров : Постоянный
Частота кадров : 60,000 кадров/сек
Цветовое пространство : YUV
Субдискретизация насыщенности : 4:2:0
Битовая глубина : 8 бит
Тип развёртки : Прогрессивная
Бит/(Пиксели*Кадры) : 0.034
Размер потока : 673 Мбайт (90%)
Дата кодирования : UTC 2016-11-14 22:03:22
Дата пометки : UTC 2016-11-14 22:03:22
Аудио
Идентификатор : 1
Формат файла : AAC
Формат файла/Информация : Advanced Audio Codec
Профиль формата : LC
Идентификатор кодека : 40
Продолжительность : 50 м. 11 с.
Duration_LastFrame : -9 мс.
Вид битрейта : Постоянный
Битрейт : 192 Кбит/сек
Каналы : 2 канала
Расположение каналов : Front: L R
Частота : 48,0 КГц
Частота кадров : 46,875 кадров/сек (1024 spf)
Метод сжатия : С потерями
Размер потока : 68,9 Мбайт (9%)
Default : Да
AlternateGroup/String : 1
Дата кодирования : UTC 2016-11-14 22:03:22
Дата пометки : UTC 2016-11-14 22:03:22
Общее
Полное имя : D:\Видео\Opencart\opencart2\video\8 урок - Верстка и посадка шапки сайта.mp4
Формат файла : MPEG-4
Профиль формата : Base Media
Идентификатор кодека : isom (isom/iso2/avc1/mp41)
Размер файла : 1,80 Гбайт
Продолжительность : 2 ч. 5 м.
Общий поток : 2053 Кбит/сек
Дата кодирования : UTC 2016-11-14 22:03:42
Дата пометки : UTC 2016-11-14 22:03:42
Программа кодирования : Lavf57.40.101
Видео
Идентификатор : 2
Формат файла : AVC
Формат файла/Информация : Advanced Video Codec
Профиль формата : Baseline@L3.2
Параметр CABAC формата : Нет
Параметр ReFrames формата : 2 кадра
Параметр GOP формата : M=1, N=25
Идентификатор кодека : avc1
Идентификатор кодека/Информация : Advanced Video Coding
Продолжительность : 2 ч. 5 м.
Битрейт : 1852 Кбит/сек
Ширина : 1280 пикселей
Высота : 720 пикселей
Соотношение сторон : 16:9
Режим частоты кадров : Постоянный
Частота кадров : 60,000 кадров/сек
Цветовое пространство : YUV
Субдискретизация насыщенности : 4:2:0
Битовая глубина : 8 бит
Тип развёртки : Прогрессивная
Бит/(Пиксели*Кадры) : 0.033
Размер потока : 1,63 Гбайт (90%)
Дата кодирования : UTC 2016-11-14 22:03:42
Дата пометки : UTC 2016-11-14 22:03:42
Аудио
Идентификатор : 1
Формат файла : AAC
Формат файла/Информация : Advanced Audio Codec
Профиль формата : LC
Идентификатор кодека : 40
Продолжительность : 2 ч. 5 м.
Duration_LastFrame : -9 мс.
Вид битрейта : Постоянный
Битрейт : 192 Кбит/сек
Каналы : 2 канала
Расположение каналов : Front: L R
Частота : 48,0 КГц
Частота кадров : 46,875 кадров/сек (1024 spf)
Метод сжатия : С потерями
Размер потока : 173 Мбайт (9%)
Default : Да
AlternateGroup/String : 1
Дата кодирования : UTC 2016-11-14 22:03:42
Дата пометки : UTC 2016-11-14 22:03:42
Общее
Полное имя : D:\Видео\Opencart\opencart2\video\9 урок - Создание слайдера.mp4
Формат файла : MPEG-4
Профиль формата : Base Media
Идентификатор кодека : isom (isom/iso2/avc1/mp41)
Размер файла : 440 Мбайт
Продолжительность : 26 м. 17 с.
Общий поток : 2337 Кбит/сек
Дата кодирования : UTC 2016-11-14 22:04:17
Дата пометки : UTC 2016-11-14 22:04:17
Программа кодирования : Lavf57.40.101
Видео
Идентификатор : 2
Формат файла : AVC
Формат файла/Информация : Advanced Video Codec
Профиль формата : Baseline@L3.2
Параметр CABAC формата : Нет
Параметр ReFrames формата : 2 кадра
Параметр GOP формата : M=1, N=25
Идентификатор кодека : avc1
Идентификатор кодека/Информация : Advanced Video Coding
Продолжительность : 26 м. 17 с.
Битрейт : 2136 Кбит/сек
Ширина : 1280 пикселей
Высота : 720 пикселей
Соотношение сторон : 16:9
Режим частоты кадров : Постоянный
Частота кадров : 60,000 кадров/сек
Цветовое пространство : YUV
Субдискретизация насыщенности : 4:2:0
Битовая глубина : 8 бит
Тип развёртки : Прогрессивная
Бит/(Пиксели*Кадры) : 0.039
Размер потока : 402 Мбайт (91%)
Дата кодирования : UTC 2016-11-14 22:04:17
Дата пометки : UTC 2016-11-14 22:04:17
Аудио
Идентификатор : 1
Формат файла : AAC
Формат файла/Информация : Advanced Audio Codec
Профиль формата : LC
Идентификатор кодека : 40
Продолжительность : 26 м. 17 с.
Duration_LastFrame : -9 мс.
Вид битрейта : Постоянный
Битрейт : 192 Кбит/сек
Каналы : 2 канала
Расположение каналов : Front: L R
Частота : 48,0 КГц
Частота кадров : 46,875 кадров/сек (1024 spf)
Метод сжатия : С потерями
Размер потока : 36,1 Мбайт (8%)
Default : Да
AlternateGroup/String : 1
Дата кодирования : UTC 2016-11-14 22:04:17
Дата пометки : UTC 2016-11-14 22:04:17

Содержания

  • “Создание интернет-магазина от А до Я”
  • Архив с курсом:
  • Уроки в видеоформате (10Гб, 12 часов)
  • Учебные материалы, референсы
  • Готовый дизайн
  • Готовый сайт
  • Все используемые плагины
  • Все используемые инструменты
В данном курсе мы на практике изучим все этапы разработки интернет-магазина - от создания дизайна, верстки и посадки PSD макетов на OpenCart, до размещения проекта на хостинге и настройки деплоя локальных изменений.
Особое внимание в курсе уделяется правильной и грамотной работе с CMS OpenCart в соответствии с документацией системы. Мы разработаем свой уникальный шаблон с нуля!
Создадим полностью адаптивный интернет-магазин благодаря встроенной поддержке системой OpenCart CSS фреймворка Bootstrap.
Разработка на последней версии OpenCart превратится в настоящее удовольствие благодаря нативной поддержке любимых разработчиками инструментов, таких, как Bootstrap, Magnific-Popup, FontAwesome и др.
В курсе мы задействуем все возможности мощнейшей CMS для создания интернет-магазина на все 100%.
Разработаем свой модуль “Преимущества” на основе стартового каркаса, который был создан специально для данного курса. Предоставленный каркас пригодится вам для создания любых OpenCart модулей в будущем.
В дальнейшем вы сможете создавать свои модули для вывода любого дополнительного контента из панели администратора, в том числе любую секцию Landing Page, если главная страница выполнена в виде посадочной страницы или любую другую дополнительную информацию и списки.
Кроме того, научимся работать с модификаторами OpenCart для грамотного создания правок системных файлов, не затрагивая ядро системы.
Подробно рассмотрим работу с популярными jQuery плагинами в процессе работы, создадим и стилизуем свои модальные окна, разработаем функционал покупки товара в один клик.
Также научимся создавать свои пользовательские скрипты и оживим фронтенд магазина с помощью библиотеки jQuery.

Скриншоты




[islamvillage.com]_t_5383769.torrent
Торрент: Зарегистрирован ·  [ 2017-04-08 15:24 ] ·  00eb555fbf200fd7a7fa4550426931730f0c25f0

40 KB

Статус: проверено
Скачан: 3 раз
Размер: 9.84 GB
Оценка: 
(Голосов: 0)
Сказали спасибо: 0  Спасибо
Похожие темы
[Профиль]    [ЛС]

islamvillage.com

Создавать темы 11-Фев-2019 14:45 (спустя 1 год 10 месяцев)

[Цитировать]

У кого есть данный торрент?
[Профиль]    [ЛС]
Показать сообщения:    
Ответить на тему

Текущее время: Сегодня 10:27

Часовой пояс: GMT + 7



Вы не можете начинать темы
Вы не можете отвечать на сообщения
Вы не можете редактировать свои сообщения
Вы не можете удалять свои сообщения
Вы не можете голосовать в опросах
Вы не можете прикреплять файлы к сообщениям
Вы можете скачивать файлы


Disjointed (6) | Engrenages | The Three Heroes and Five Gallants - 五鼠鬧東京The Three Heroes and Five Gallants