(Extreme Progressive Metal) Ihsahn - After - 2010, FLAC (tracks+.cue), lossless

Ответить на тему
Статистика раздачи [Обновить пиров]
Размер:  475 MB   |    Зарегистрирован:  1 год 7 месяцев   |    Скачан:  0 раз

Полного источника не было: Никогда

 
   
 
 
 
Автор Сообщение

islamvillage.com

Создавать темы 29-Май-2017 00:33

[Цитировать]


Ihsahn - After
Жанр: Extreme Progressive Metal
Год выхода диска: 2010
Производитель диска: Norway
Аудио кодек: FLAC
Тип рипа: tracks+.cue
Битрейт аудио: lossless
Продолжительность: 53:07
Трэклист:
01. The Barren Lands (5:13)
02. A Grave Inversed (4:26)
03. After (4:48)
04. Frozen Lakes On Mars (5:55)
05. Undercurrent (10:00)
06. Austere (6:17)
07. Heavens Black Sea (6:16)
08. On The Shores (10:13)
: Erebus [what.cd]

EAC log

Exact Audio Copy V0.99 prebeta 4 from 23. January 2008
EAC extraction logfile from 26. January 2010, 14:15
Ihsahn / After
Used drive : PIONEER DVD-RW DVR-109 Adapter: 1 ID: 0
Read mode : SecureUtilize accurate stream : YesDefeat audio cache : YesMake use of C2 pointers : No
Read offset correction : 48Overread into Lead-In and Lead-Out : NoFill up missing offset samples with silence : YesDelete leading and trailing silent blocks : NoNull samples used in CRC calculations : YesUsed interface : Native Win32 interface for Win NT & 2000Gap handling : Appended to previous track
Used output format : Internal WAV RoutinesSample format : 44.100 Hz; 16 Bit; Stereo
TOC of the extracted CD
Track | Start | Length | Start sector | End sector --------------------------------------------------------- 1 | 0:00.00 | 5:12.52 | 0 | 23451 2 | 5:12.52 | 4:25.35 | 23452 | 43361 3 | 9:38.12 | 4:47.69 | 43362 | 64955 4 | 14:26.06 | 5:54.68 | 64956 | 91573 5 | 20:20.74 | 10:00.05 | 91574 | 136578 6 | 30:21.04 | 6:16.50 | 136579 | 164828 7 | 36:37.54 | 6:15.46 | 164829 | 192999 8 | 42:53.25 | 10:12.68 | 193000 | 238967
Track 1
Filename C:\Ripped CDs\Ihsahn - 2010 - After\Ihsahn - After - 01 - The Barren Lands.wav
Pre-gap length 0:00:02.00
Peak level 99.3 % Track quality 100.0 % Test CRC 7EA27940 Copy CRC 7EA27940 Track not present in AccurateRip database Copy OK
Track 2
Filename C:\Ripped CDs\Ihsahn - 2010 - After\Ihsahn - After - 02 - A Grave Inversed.wav
Peak level 99.3 % Track quality 100.0 % Test CRC 0BEE0555 Copy CRC 0BEE0555 Track not present in AccurateRip database Copy OK
Track 3
Filename C:\Ripped CDs\Ihsahn - 2010 - After\Ihsahn - After - 03 - After.wav
Peak level 99.3 % Track quality 100.0 % Test CRC 44192167 Copy CRC 44192167 Track not present in AccurateRip database Copy OK
Track 4
Filename C:\Ripped CDs\Ihsahn - 2010 - After\Ihsahn - After - 04 - Frozen Lakes On Mars.wav
Peak level 99.3 % Track quality 100.0 % Test CRC 8574095F Copy CRC 8574095F Track not present in AccurateRip database Copy OK
Track 5
Filename C:\Ripped CDs\Ihsahn - 2010 - After\Ihsahn - After - 05 - Undercurrent.wav
Peak level 99.3 % Track quality 99.9 % Test CRC 37F0A2EC Copy CRC 37F0A2EC Track not present in AccurateRip database Copy OK
Track 6
Filename C:\Ripped CDs\Ihsahn - 2010 - After\Ihsahn - After - 06 - Austere.wav
Peak level 99.3 % Track quality 100.0 % Test CRC 8102AA49 Copy CRC 8102AA49 Track not present in AccurateRip database Copy OK
Track 7
Filename C:\Ripped CDs\Ihsahn - 2010 - After\Ihsahn - After - 07 - Heaven's Black Sea.wav
Peak level 99.3 % Track quality 100.0 % Test CRC 32DE124E Copy CRC 32DE124E Track not present in AccurateRip database Copy OK
Track 8
Filename C:\Ripped CDs\Ihsahn - 2010 - After\Ihsahn - After - 08 - On The Shores.wav
Peak level 99.3 % Track quality 100.0 % Test CRC A7327D3F Copy CRC A7327D3F Track not present in AccurateRip database Copy OK
None of the tracks are present in the AccurateRip database
No errors occurred
End of status report

cue sheet

REM GENRE "Extreme Progressive Metal"REM DATE 2010REM DISCID 6A0C7208REM COMMENT "ExactAudioCopy v0.99pb4"PERFORMER "Ihsahn"TITLE "After"FILE "Ihsahn - After - 01 - The Barren Lands.wav" WAVE TRACK 01 AUDIO TITLE "The Barren Lands" PERFORMER "Ihsahn" INDEX 01 00:00:00FILE "Ihsahn - After - 02 - A Grave Inversed.wav" WAVE TRACK 02 AUDIO TITLE "A Grave Inversed" PERFORMER "Ihsahn" INDEX 01 00:00:00FILE "Ihsahn - After - 03 - After.wav" WAVE TRACK 03 AUDIO TITLE "After" PERFORMER "Ihsahn" INDEX 01 00:00:00FILE "Ihsahn - After - 04 - Frozen Lakes On Mars.wav" WAVE TRACK 04 AUDIO TITLE "Frozen Lakes On Mars" PERFORMER "Ihsahn" INDEX 01 00:00:00FILE "Ihsahn - After - 05 - Undercurrent.wav" WAVE TRACK 05 AUDIO TITLE "Undercurrent" PERFORMER "Ihsahn" INDEX 01 00:00:00FILE "Ihsahn - After - 06 - Austere.wav" WAVE TRACK 06 AUDIO TITLE "Austere" PERFORMER "Ihsahn" INDEX 01 00:00:00FILE "Ihsahn - After - 07 - Heaven's Black Sea.wav" WAVE TRACK 07 AUDIO TITLE "Heaven's Black Sea" PERFORMER "Ihsahn" INDEX 01 00:00:00FILE "Ihsahn - After - 08 - On The Shores.wav" WAVE TRACK 08 AUDIO TITLE "On The Shores" PERFORMER "Ihsahn" INDEX 01 00:00:00


[islamvillage.com]_t_2685445.torrent
Торрент: Зарегистрирован ·  [ 2017-05-29 00:24 ] ·  5d2d4df0b22c193f3366e2da51f482bec188a5ae

39 KB

Статус: проверено
Скачан: 0 раз
Размер: 475 MB
Оценка: 
(Голосов: 0)
Сказали спасибо: 0  Спасибо
Похожие темы
[Профиль]    [ЛС]
Показать сообщения:    
Ответить на тему

Текущее время: Сегодня 04:00

Часовой пояс: GMT + 7



Вы не можете начинать темы
Вы не можете отвечать на сообщения
Вы не можете редактировать свои сообщения
Вы не можете удалять свои сообщения
Вы не можете голосовать в опросах
Вы не можете прикреплять файлы к сообщениям
Вы можете скачивать файлы


Saenai Kanojo no Sodatekata – Koisuru Metronome chap 35 | IMDb: 7 HD Mowgli: Legend of the Jungle | Samsung Galaxy S9 S8 Plus Note 8 9 4D Full Cover Tempered Glass Screen Protector