(Drone Doom, Ambient) Sunn O))) - White1 (2CD) (2007 Reissue, Daymare Recordings, Japan) - 2003, FLAC (tracks+.cue), lossless

Ответить на тему
Статистика раздачи [Обновить пиров]
Размер:  530 MB   |    Зарегистрирован:  1 год 7 месяцев   |    Скачан:  0 раз

Полного источника не было: Никогда

 
   
 
 
 
Автор Сообщение

islamvillage.com

Создавать темы 13-Июн-2017 23:45

[Цитировать]

Sunn O))) - White1
Label: Daymare Recordings
Catalog#: DYMC-026
Format: 2 x CD, Album
Country: Japan
Released: 13 Apr 2007
Genre: Electronic, Non-Music, Rock
Style: Interview, Doom Metal, Experimental, Ambient
Credits: Mastered By - Schnoob (tracks: 1-1 to 1-3) , Tim Barnes (tracks: 2-1, 2-2)
Mixed By - Rex Ritter (tracks: 1-1 to 1-3)
Performer - Greg Anderson (tracks: 1-1 to 1-3) , Stephen O'Malley (tracks: 1-1 to 1-3)
Notes: This reissued and expanded release includes:
- Miniature thick cardboard gatefold sleeve
- Each disc housed in a paper inner bag
- Obi side strip
- Japanese liner notes
- A bonus disc which is originally way out of print for awhile
'White1' originally released as SUNN25 (Southern Lord Records, 2003).
'LXNDXN Subcamden Underworld Hallo'Ween 2003' was originally released from the label Bastet in 2003 as BAST 0002.
Track 2-1 The Libations Of Samhain was a live performance in London, Hallo'ween 2003.
Track 2-2 Sunno))) Vs. Diggers was an interview by Savage Pencil and Sharon Gal, originally broadcast on London's Resonance FM 104, 4th November 2003.
Продолжительность: 58:42 + 1:05:05
Tracklisting:
White1
1-1 My Wall (25:16)
1-2 The Gates Of Ballard (15:32)
1-3 A Shaving Of The Horn That Speared You (17:52)
LXNDXN Subcamden Underworld Hallo'Ween 2003
2-1 The Libations Of Samhain (48:59)
2-2 SunnO))) Vs Diggers 4th November 2003 (16:05)
Interviewer - Savage Pencil , Sharon Gal

CD1: EAC Log

Exact Audio Copy V0.99 prebeta 3 from 28. July 2007
EAC extraction logfile from 25. August 2008, 5:49
Sunn O))) / White1
Used drive : HL-DT-STCD-RW GCE-8481B Adapter: 1 ID: 0
Read mode : SecureUtilize accurate stream : YesDefeat audio cache : YesMake use of C2 pointers : No
Read offset correction : 6Overread into Lead-In and Lead-Out : NoFill up missing offset samples with silence : YesDelete leading and trailing silent blocks : NoNull samples used in CRC calculations : YesUsed interface : Installed external ASPI interfaceGap handling : Appended to previous track
Used output format : User Defined EncoderSelected bitrate : 192 kBit/sQuality : HighAdd ID3 tag : NoCommand line compressor : C:\Program Files\Exact Audio Copy\flac.exeAdditional command line options : -8 -A tukey(0.25) -A gauss(0.1875) -b 4096 -V -T "artist=%a" -T "title=%t" -T "album=%g" -T "date=%y" -T "tracknumber=%n" -T "genre=%m" %s --sector-align
TOC of the extracted CD
Track | Start | Length | Start sector | End sector --------------------------------------------------------- 1 | 0:00.00 | 25:16.68 | 0 | 113767 2 | 25:16.68 | 15:32.57 | 113768 | 183724 3 | 40:49.50 | 17:52.13 | 183725 | 264137
Track 1
Filename G:\Music\Sunn O)))\Sunn O))) - (2003) White 1 (2CD Daymare Reissue) (FLAC)\Disc 1\01. My Wall.wav
Pre-gap length 0:00:02.00
Peak level 100.0 % Track quality 100.0 % Test CRC 50E05F35 Copy CRC 50E05F35 Copy OK
Track 2
Filename G:\Music\Sunn O)))\Sunn O))) - (2003) White 1 (2CD Daymare Reissue) (FLAC)\Disc 1\02. The Gates of Ballard.wav
Peak level 100.0 % Track quality 99.9 % Test CRC 44D8F833 Copy CRC 44D8F833 Copy OK
Track 3
Filename G:\Music\Sunn O)))\Sunn O))) - (2003) White 1 (2CD Daymare Reissue) (FLAC)\Disc 1\03. A Shaving of the Horn That Speared You.wav
Peak level 100.0 % Track quality 99.9 % Test CRC 0EBE9CB6 Copy CRC 0EBE9CB6 Copy OK
No errors occurred
End of status report

CD2: EAC Log

Exact Audio Copy V0.99 prebeta 3 from 28. July 2007
EAC extraction logfile from 25. August 2008, 14:29
Sunn O))) / White 1 (2CD Reissue) (Disc 2)
Used drive : HL-DT-STCD-RW GCE-8481B Adapter: 1 ID: 0
Read mode : SecureUtilize accurate stream : YesDefeat audio cache : YesMake use of C2 pointers : No
Read offset correction : 6Overread into Lead-In and Lead-Out : NoFill up missing offset samples with silence : YesDelete leading and trailing silent blocks : NoNull samples used in CRC calculations : YesUsed interface : Installed external ASPI interfaceGap handling : Appended to previous track
Used output format : User Defined EncoderSelected bitrate : 192 kBit/sQuality : HighAdd ID3 tag : NoCommand line compressor : C:\Program Files\Exact Audio Copy\flac.exeAdditional command line options : -8 -A tukey(0.25) -A gauss(0.1875) -b 4096 -V -T "artist=%a" -T "title=%t" -T "album=%g" -T "date=%y" -T "tracknumber=%n" -T "genre=%m" %s --sector-align
TOC of the extracted CD
Track | Start | Length | Start sector | End sector --------------------------------------------------------- 1 | 0:00.00 | 48:59.52 | 0 | 220476 2 | 48:59.52 | 16:05.04 | 220477 | 292855
Track 1
Filename G:\Music\Sunn O)))\Sunn O))) - (2003) White 1 (2CD Daymare Reissue) (FLAC)\Disc 2\01. The Libations of Samhain.wav
Pre-gap length 0:00:02.00
Peak level 100.0 % Track quality 100.0 % Test CRC 3FAF6DBA Copy CRC 3FAF6DBA Copy OK
Track 2
Filename G:\Music\Sunn O)))\Sunn O))) - (2003) White 1 (2CD Daymare Reissue) (FLAC)\Disc 2\02. SUNN O))) vs Diggers.wav
Peak level 94.1 % Track quality 100.0 % Test CRC A5CC9CB1 Copy CRC A5CC9CB1 Copy OK
No errors occurred
End of status report
------------------------------
После того, как музыканты Санн О))) - Greg Anderson и Steven O’Malley - обслушались Earth и дали всем понять, что drone doom живет и еще как торжествует, выпустив три замечательных альбома (The Grimrobe Demos, 00 Void и Flight Of The Behemoth), а также несколько демок и концертных записей, они, по всей видимости, поняли, что пришло время посмотреть по сторонам и немного трансформировать свою музыку. И вовремя. Теоретически нет ничего сложного записать еще альбомов десять гитарно-басового низкочастотного гудения, но, черт возьми, повторение пройденного – это топтание на месте и никому не интересно... Чувачки позвали Ozma из Thorr’s Hammer и Attila Csihar сами знаете откуда, напоили их (или накурили – не столь важно) и оторвались по полной. Результатом стала длиннющая сессия звукозаписи и вышедшие из нее альбомы White 1 и White 2. Итак, White 1 – три вещи, хронометраж 58:42. Первый трек „My Wall“ мягко, ласково, подобно прибою, вытекает из ниоткуда, и Аттила, полузакрыв глаза, молитвенно вещает какой-то бред, аккор ля минор переливается всеми цветами радуги, вылупляется и снова пропадает электроника, и вот снова они, те самые гитары, потопляющие под слоем раскаленной магмы все и вся... Трек номер 2 „The Gates Of Ballard“: глянь-ка, кто пришел! Ozma пришла и гитарку принесла! Пропустила микрофон через фузз и как даст по струнам, а кто-то ка-ак запустит драм-машинку – и вот уже хочется рубиться вчетверо медленнее обычного... Тема исчезает и снова возвращается, на сей раз поддержанная живой кухней. Трек номер 3 «А Shaving Of The Horn That Speared You» - что-то среднее между dark ambient и noise, пофигистическое и расслабленное до нуля – дает понять, что мы услышим на White 2. Спокойной ночи, господа металхэды, и да пребудут с вами Sunn O)))...
ЗЫ. Говорить и писать о Санн О))) можно все, что угодно, но нельзя не отрицать значение и влияние этого проекта на музыку в целом и креативность музыкантов в частности. Недавно прочитал на doom-metal.com о польской банде под названием Moonn D))). Полку дроунеров прибыло...
http://www.darkside.ru/album/3407/


[islamvillage.com]_t_1181894.torrent
Торрент: Зарегистрирован ·  [ 2017-06-13 23:36 ] ·  0db6808abccc2db080da98ac3576184c5a8aca2a

13 KB

Статус: проверено
Скачан: 0 раз
Размер: 530 MB
Оценка: 
(Голосов: 0)
Сказали спасибо: 0  Спасибо
Похожие темы
[Профиль]    [ЛС]
Показать сообщения:    
Ответить на тему

Текущее время: Сегодня 02:57

Часовой пояс: GMT + 7



Вы не можете начинать темы
Вы не можете отвечать на сообщения
Вы не можете редактировать свои сообщения
Вы не можете удалять свои сообщения
Вы не можете голосовать в опросах
Вы не можете прикреплять файлы к сообщениям
Вы можете скачивать файлы


6.7 Smallfoot (2018) | Hinübergehen: Was beim Sterben geschieht. Annäherungen an letzte Wahrheiten unseres Lebens, Auflage: 5 | Goo-Bi GC