Искатели (Загадка исчезнувшей земли) (Олег Бараев) [2017, Документальный, история, расследование, приключени, IPTVRip]

Ответить на тему
Статистика раздачи [Обновить пиров]
Размер:  598 MB   |    Зарегистрирован:  1 год 6 месяцев   |    Скачан:  0 раз
Сидеров:  2  [  0 KB/s  ]   Подробная статистика скачивающих
 
   
 
 
 
Автор Сообщение

islamvillage.com

Создавать темы 27-Июн-2017 23:21

[Цитировать]

Искатели (Загадка исчезнувшей земли)
Год выхода: 2017
Страна: Россия, ООО "Студия Просветительских Фильмов"
Жанр: Документальный, история, расследование, приключени
Продолжительность: 00:44:00
Перевод: Не требуется
Русские субтитры: нет
Режиссер: Олег Бараев
Описание: Знаменитый ученый барон Толль не пожалел собственной жизни, чтобы доказать существование Земли Санникова, а сегодня ее считают географическим мифом. "Искатели" решили еще раз обратиться к этой теме, так как появилась уникальная возможность вместе с экспедицией известного исследователя Арктики Петра Боярского пройти по всему Северному морскому пути и побывать там, где проходили маршруты Эдуарда Толля. Подержать в руках реальные вещи, которых более ста лет назад касалась рука этого арктического исследователя. Только Землю Санникова обнаружить не удалось. Куда же она делась? Может быть, барон Толль просто ошибался? Или его дразнили миражи? Попробуем разобраться.
качество: IPTVRip
формат: AVI
Видео: 720x400 (1.80:1), 25 fps, XviD build 73 ~1699 kbps avg, 0.24 bit/pixel
Аудио: 48 kHz, AC3 Dolby Digital, 2/0 (L,R) ch, ~192.00 kbps avg

MediaInfo

Complete name : D:\gotov\Искатели.Загадка исчезнувшей земли.2017.IPTVRip.aviFormat : AVIFormat/Info : Audio Video InterleaveFile size : 598 MiBDuration : 44 min 0 sOverall bit rate : 1 901 kb/sWriting application : VirtualDubMod 1.5.10.3 | www.virtualdub-fr.org || (build 2550/release)Writing library : VirtualDubMod build 2550/release
VideoID : 0Format : MPEG-4 VisualFormat profile : Advanced Simple@L5Format settings, BVOP : 2Format settings, QPel : NoFormat settings, GMC : No warppointsFormat settings, Matrix : Default (H.263)Codec ID : XVIDCodec ID/Hint : XviDDuration : 44 min 0 sBit rate : 1 700 kb/sWidth : 720 pixelsHeight : 400 pixelsDisplay aspect ratio : 16:9Frame rate : 25.000 FPSColor space : YUVChroma subsampling : 4:2:0Bit depth : 8 bitsScan type : ProgressiveCompression mode : LossyBits/(Pixel*Frame) : 0.236Stream size : 535 MiB (89%)Writing library : XviD 73
AudioID : 1Format : AC-3Format/Info : Audio Coding 3Mode extension : CM (complete main)Format settings, Endianness : BigCodec ID : 2000Duration : 44 min 0 sBit rate mode : ConstantBit rate : 192 kb/sChannel(s) : 2 channelsChannel positions : Front: L RSampling rate : 48.0 kHzFrame rate : 31.250 FPS (1536 spf)Bit depth : 16 bitsCompression mode : LossyStream size : 60.4 MiB (10%)Alignment : Split accross interleavesInterleave, duration : 40 ms (1.00 video frame)Interleave, preload duratio : 500 ms

Скриншоты



[islamvillage.com]_t_5408257.torrent
Торрент: Зарегистрирован ·  [ 2017-06-27 23:18 ] ·  bf961d771fd51892435b48ce12c1d0af4648c009

6 KB

Статус: проверено
Скачан: 0 раз
Размер: 598 MB
Оценка: 
(Голосов: 0)
Сказали спасибо: 0  Спасибо
Похожие темы
[Профиль]    [ЛС]
Показать сообщения:    
Ответить на тему

Текущее время: Сегодня 18:54

Часовой пояс: GMT + 7



Вы не можете начинать темы
Вы не можете отвечать на сообщения
Вы не можете редактировать свои сообщения
Вы не можете удалять свои сообщения
Вы не можете голосовать в опросах
Вы не можете прикреплять файлы к сообщениям
Вы можете скачивать файлы


Ski nautique, wakeboard | Honors Economics Economic Goals | 2 rponses