Cerrone - Culture (The Complete Video Anthology)(Российское издание)[2004, Pop, Disco, Electronic, Electro-Disco, DVD9]

Ответить на тему
Статистика раздачи [Обновить пиров]
Размер:  7.74 GB   |    Зарегистрирован:  1 год 5 месяцев   |    Скачан:  0 раз

Полного источника не было: Никогда

 
   
 
 
 
Автор Сообщение

islamvillage.com

Создавать темы 20-Июл-2017 21:43

[Цитировать]

Cerrone - Culture- Жанр: Pop, Disco, Electronic, Electro-Disco
Продолжительность: 01:53:00
Год выхода: 2004
Лейбл: Malligator Productions/фирма грамзаписи Никитин
Каталожный номер: ТФН-DVD 143/07-Cerrone's Best Videos
01 Hysteria
02 Love In C Minor
03 Cerrone's Paradise
04 Take Me
05 Supernature
06 Give Me Love
07 Je Suis Music
08 Call Me Tonight
09 Panic
10 You Are The One
11 Back Track
12 Where Are You Now
13 Club Underworld
14 The Collector
15 Heart Of Me
16 One More Night
17 Love And Be Loved
18 Mercy
19 See Me
20 Give Me Love 2001
21 Supernature 2001
Cerrone's Concerts
01 Cerrone Concert - Pavillon, Paris 1978
02 The Collector - Trocadero, Paris 1988
03 Harmony - Tokyo 1991
04 Planet Opera - Nice 1996
05 Hysteria Party - Olympia, Paris 2003-Разбивка на главы по трекам: есть
Качество : DVD9
Формат файла: DVD video
Видео кодек: MPEG2
Аудио кодек: AC3
Видео: MPEG-2, PAL 4:3 (720x576), ~VBR 5000-8000 kbps
Аудио: AC-3, 2 ch, 192 kbps, CBR
Аудио 2: AC-3, 6 ch, 448 kbps, CBR

DVDinfo

Title: CERRONE_CULTURESize: 7.75 Gb ( 8 121 261,00 KBytes ) - DVD-9Enabled regions: 1, 2, 3, 4, 5, 6, 7, 8
VTS_01 : Play Length: 01:30:21 Video: PAL 4:3 (720x576) VBR Audio: Francais, AC3, 2/0 (L,R) ch, 192 kbps, Delay 0 mSec Francais, AC3, 3/2 (L,C,R,SL,SR)+LFE ch, 448 kbps, Delay 0 mSec
VTS_02 : Play Length: 00:17:54+00:17:58+00:19:21+00:16:54+00:15:52 Video: PAL 4:3 (720x576) VBR Audio: Francais, AC3, 2/0 (L,R) ch, 192 kbps, Delay 0 mSec Francais, AC3, 3/2 (L,C,R,SL,SR)+LFE ch, 448 kbps, Delay 0 mSec
* Menus Information *
VIDEO_TS MenuVideo: PAL 4:3 (720x576) VBRAudio: Not specified (Dolby AC3, 2 ch)Russian Language Unit : Title Menu
VTS_01 MenuVideo: PAL 4:3 (720x576) VBRAudio: Not specified (Dolby AC3, 2 ch)Russian Language Unit : Root Menu Audio Menu Chapter (PTT) Menu
VTS_02 MenuVideo: PAL 4:3 (720x576) VBRAudio: Not specified (Dolby AC3, 2 ch)Russian Language Unit : Root Menu Audio Menu

MediaInfo

GeneralComplete name : D:\Musical video\CERRONE_CULTURE\VIDEO_TS\VIDEO_TS.VOBFormat : MPEG-PSFile size : 48.8 MiBDuration : 7s 951msOverall bit rate : 51.4 Mbps
VideoID : 224 (0xE0)Format : MPEG VideoFormat version : Version 2Format profile : Main@MainFormat settings, BVOP : YesFormat settings, Matrix : DefaultFormat settings, GOP : VariableDuration : 7s 951msBit rate : 50.0 MbpsWidth : 720 pixelsHeight : 576 pixelsDisplay aspect ratio : 4:3Frame rate : 25.000 fpsStandard : PALColor space : YUVChroma subsampling : 4:2:0Bit depth : 8 bitsCompression mode : LossyBits/(Pixel*Frame) : 4.819Time code of first frame : 00:00:00:00Time code source : Group of pictures headerGOP, Open/Closed : OpenStream size : 47.4 MiB (97%)Color primaries : BT.601 PALTransfer characteristics : BT.470 System B, BT.470 System GMatrix coefficients : BT.601
AudioID : 189 (0xBD)-128 (0x80)Format : AC-3Format/Info : Audio Coding 3Mode extension : CM (complete main)Format settings, Endianness : BigMuxing mode : DVD-VideoDuration : 7s 951msBit rate mode : ConstantBit rate : 448 KbpsChannel(s) : 2 channelsChannel positions : Front: L RSampling rate : 48.0 KHzFrame rate : 31.250 fps (1536 spf)Compression mode : LossyDelay relative to video : -50msStream size : 435 KiB (1%)
Menu
GeneralComplete name : D:\Musical video\CERRONE_CULTURE\VIDEO_TS\VTS_01_0.VOBFormat : MPEG-PSFile size : 65.4 MiBDuration : 14s 720msOverall bit rate mode : VariableOverall bit rate : 37.3 MbpsWriting library : BitVice MPEG2 Encoder Vn 1.2.5(1) PPC G4 (c) 2002 Innobits AB
VideoID : 224 (0xE0)Format : MPEG VideoFormat version : Version 2Format profile : Main@MainFormat settings, BVOP : YesFormat settings, Matrix : CustomFormat settings, GOP : VariableDuration : 14s 720msBit rate mode : VariableBit rate : 36.3 MbpsMaximum bit rate : 9 800 KbpsWidth : 720 pixelsHeight : 576 pixelsDisplay aspect ratio : 4:3Frame rate : 25.000 fpsStandard : PALColor space : YUVChroma subsampling : 4:2:0Bit depth : 8 bitsScan type : ProgressiveScan order : Bottom Field FirstCompression mode : LossyBits/(Pixel*Frame) : 3.501Time code of first frame : 00:00:00:00Time code source : Group of pictures headerGOP, Open/Closed : ClosedStream size : 63.7 MiB (97%)Writing library : BitVice MPEG2 Encoder Vn 1.2.5(1) PPC G4 (c) 2002 Innobits ABColor primaries : BT.601 PALTransfer characteristics : BT.470 System B, BT.470 System GMatrix coefficients : BT.601
AudioID : 189 (0xBD)-128 (0x80)Format : AC-3Format/Info : Audio Coding 3Mode extension : CM (complete main)Format settings, Endianness : BigMuxing mode : DVD-VideoDuration : 14s 656msBit rate mode : ConstantBit rate : 224 KbpsChannel(s) : 2 channelsChannel positions : Front: L RSampling rate : 48.0 KHzFrame rate : 31.250 fps (1536 spf)Compression mode : LossyStream size : 401 KiB (1%)
Menu
GeneralComplete name : D:\Musical video\CERRONE_CULTURE\VIDEO_TS\VTS_01_1.VOBFormat : MPEG-PSFile size : 1 024 MiBDuration : 23mn 13sOverall bit rate mode : VariableOverall bit rate : 6 162 KbpsWriting library : encoded by TMPGEnc 3.0 XPress Version. 3.0.4.24
VideoID : 224 (0xE0)Format : MPEG VideoFormat version : Version 2Format profile : Main@MainFormat settings, BVOP : YesFormat settings, Matrix : CustomFormat settings, GOP : M=3, N=13Format settings, picture st : FrameDuration : 23mn 13sBit rate mode : VariableBit rate : 5 399 KbpsMaximum bit rate : 8 000 KbpsWidth : 720 pixelsHeight : 576 pixelsDisplay aspect ratio : 4:3Frame rate : 25.000 fpsStandard : PALColor space : YUVChroma subsampling : 4:2:0Bit depth : 8 bitsScan type : InterlacedScan order : Top Field FirstCompression mode : LossyBits/(Pixel*Frame) : 0.521Time code of first frame : 00:00:00:00Time code source : Group of pictures headerGOP, Open/Closed : ClosedStream size : 897 MiB (88%)Writing library : TMPGEnc 3.0 XPress Version. 3.0.4.24Color primaries : BT.601 PALTransfer characteristics : BT.470 System B, BT.470 System GMatrix coefficients : FCC 73.682
Audio #1ID : 189 (0xBD)-128 (0x80)Format : AC-3Format/Info : Audio Coding 3Mode extension : CM (complete main)Format settings, Endianness : BigMuxing mode : DVD-VideoDuration : 23mn 13sBit rate mode : ConstantBit rate : 192 KbpsChannel(s) : 2 channelsChannel positions : Front: L RSampling rate : 48.0 KHzFrame rate : 31.250 fps (1536 spf)Compression mode : LossyStream size : 31.9 MiB (3%)
Audio #2ID : 189 (0xBD)-129 (0x81)Format : AC-3Format/Info : Audio Coding 3Mode extension : CM (complete main)Format settings, Endianness : BigMuxing mode : DVD-VideoDuration : 23mn 13sBit rate mode : ConstantBit rate : 448 KbpsChannel(s) : 6 channelsChannel positions : Front: L C R, Side: L R, LFESampling rate : 48.0 KHzFrame rate : 31.250 fps (1536 spf)Compression mode : LossyStream size : 74.4 MiB (7%)
Menu
GeneralComplete name : D:\Musical video\CERRONE_CULTURE\VIDEO_TS\VTS_01_2.VOBFormat : MPEG-PSFile size : 1 024 MiBDuration : 23mn 26sOverall bit rate mode : VariableOverall bit rate : 6 105 Kbps
VideoID : 224 (0xE0)Format : MPEG VideoFormat version : Version 2Format profile : Main@MainFormat settings, BVOP : YesFormat settings, Matrix : CustomFormat settings, GOP : M=3, N=13Format settings, picture st : FrameDuration : 23mn 26sBit rate mode : VariableBit rate : 5 343 KbpsMaximum bit rate : 8 000 KbpsWidth : 720 pixelsHeight : 576 pixelsDisplay aspect ratio : 4:3Frame rate : 25.000 fpsStandard : PALColor space : YUVChroma subsampling : 4:2:0Bit depth : 8 bitsScan type : InterlacedScan order : Top Field FirstCompression mode : LossyBits/(Pixel*Frame) : 0.515Time code of first frame : 00:23:13:13Time code source : Group of pictures headerGOP, Open/Closed : ClosedStream size : 896 MiB (88%)Color primaries : BT.601 PALTransfer characteristics : BT.470 System B, BT.470 System GMatrix coefficients : FCC 73.682
Audio #1ID : 189 (0xBD)-128 (0x80)Format : AC-3Format/Info : Audio Coding 3Mode extension : CM (complete main)Format settings, Endianness : BigMuxing mode : DVD-VideoDuration : 23mn 26sBit rate mode : ConstantBit rate : 192 KbpsChannel(s) : 2 channelsChannel positions : Front: L RSampling rate : 48.0 KHzFrame rate : 31.250 fps (1536 spf)Compression mode : LossyDelay relative to video : -112msStream size : 32.2 MiB (3%)
Audio #2ID : 189 (0xBD)-129 (0x81)Format : AC-3Format/Info : Audio Coding 3Mode extension : CM (complete main)Format settings, Endianness : BigMuxing mode : DVD-VideoDuration : 23mn 26sBit rate mode : ConstantBit rate : 448 KbpsChannel(s) : 6 channelsChannel positions : Front: L C R, Side: L R, LFESampling rate : 48.0 KHzFrame rate : 31.250 fps (1536 spf)Compression mode : LossyDelay relative to video : -176msStream size : 75.1 MiB (7%)
Menu
GeneralComplete name : D:\Musical video\CERRONE_CULTURE\VIDEO_TS\VTS_01_3.VOBFormat : MPEG-PSFile size : 1 023 MiBDuration : 24mn 17sOverall bit rate mode : VariableOverall bit rate : 5 891 Kbps
VideoID : 224 (0xE0)Format : MPEG VideoFormat version : Version 2Format profile : Main@MainFormat settings, BVOP : YesFormat settings, Matrix : CustomFormat settings, GOP : VariableFormat settings, picture st : FrameDuration : 24mn 17sBit rate mode : VariableBit rate : 5 134 KbpsMaximum bit rate : 8 000 KbpsWidth : 720 pixelsHeight : 576 pixelsDisplay aspect ratio : 4:3Frame rate : 25.000 fpsStandard : PALColor space : YUVChroma subsampling : 4:2:0Bit depth : 8 bitsScan type : InterlacedScan order : Top Field FirstCompression mode : LossyBits/(Pixel*Frame) : 0.495Time code of first frame : 00:46:40:11Time code source : Group of pictures headerGOP, Open/Closed : ClosedStream size : 892 MiB (87%)Color primaries : BT.601 PALTransfer characteristics : BT.470 System B, BT.470 System GMatrix coefficients : FCC 73.682
Audio #1ID : 189 (0xBD)-128 (0x80)Format : AC-3Format/Info : Audio Coding 3Mode extension : CM (complete main)Format settings, Endianness : BigMuxing mode : DVD-VideoDuration : 24mn 17sBit rate mode : ConstantBit rate : 192 KbpsChannel(s) : 2 channelsChannel positions : Front: L RSampling rate : 48.0 KHzFrame rate : 31.250 fps (1536 spf)Compression mode : LossyDelay relative to video : -152msStream size : 33.4 MiB (3%)
Audio #2ID : 189 (0xBD)-129 (0x81)Format : AC-3Format/Info : Audio Coding 3Mode extension : CM (complete main)Format settings, Endianness : BigMuxing mode : DVD-VideoDuration : 24mn 17sBit rate mode : ConstantBit rate : 448 KbpsChannel(s) : 6 channelsChannel positions : Front: L C R, Side: L R, LFESampling rate : 48.0 KHzFrame rate : 31.250 fps (1536 spf)Compression mode : LossyDelay relative to video : -216msStream size : 77.8 MiB (8%)
Menu
GeneralComplete name : D:\Musical video\CERRONE_CULTURE\VIDEO_TS\VTS_01_4.VOBFormat : MPEG-PSFile size : 839 MiBDuration : 19mn 22sOverall bit rate mode : VariableOverall bit rate : 6 058 Kbps
VideoID : 224 (0xE0)Format : MPEG VideoFormat version : Version 2Format profile : Main@MainFormat settings, BVOP : YesFormat settings, Matrix : CustomFormat settings, GOP : VariableFormat settings, picture st : FrameDuration : 19mn 22sBit rate mode : VariableBit rate : 5 298 KbpsMaximum bit rate : 8 000 KbpsWidth : 720 pixelsHeight : 576 pixelsDisplay aspect ratio : 4:3Frame rate : 25.000 fpsStandard : PALColor space : YUVChroma subsampling : 4:2:0Bit depth : 8 bitsScan type : InterlacedScan order : Top Field FirstCompression mode : LossyBits/(Pixel*Frame) : 0.511Time code of first frame : 01:10:57:20Time code source : Group of pictures headerGOP, Open/Closed : ClosedStream size : 734 MiB (87%)Color primaries : BT.601 PALTransfer characteristics : BT.470 System B, BT.470 System GMatrix coefficients : FCC 73.682
Audio #1ID : 189 (0xBD)-128 (0x80)Format : AC-3Format/Info : Audio Coding 3Mode extension : CM (complete main)Format settings, Endianness : BigMuxing mode : DVD-VideoDuration : 19mn 22sBit rate mode : ConstantBit rate : 192 KbpsChannel(s) : 2 channelsChannel positions : Front: L RSampling rate : 48.0 KHzFrame rate : 31.250 fps (1536 spf)Compression mode : LossyDelay relative to video : -104msStream size : 26.6 MiB (3%)
Audio #2ID : 189 (0xBD)-129 (0x81)Format : AC-3Format/Info : Audio Coding 3Mode extension : CM (complete main)Format settings, Endianness : BigMuxing mode : DVD-VideoDuration : 19mn 22sBit rate mode : ConstantBit rate : 448 KbpsChannel(s) : 6 channelsChannel positions : Front: L C R, Side: L R, LFESampling rate : 48.0 KHzFrame rate : 31.250 fps (1536 spf)Compression mode : LossyDelay relative to video : -200msStream size : 62.1 MiB (7%)
Menu
GeneralComplete name : D:\Musical video\CERRONE_CULTURE\VIDEO_TS\VTS_02_0.VOBFormat : MPEG-PSFile size : 106 MiBDuration : 16s 200msOverall bit rate : 54.7 MbpsWriting library : encoded by TMPGEnc 3.0 XPress Version. 3.0.4.24
VideoID : 224 (0xE0)Format : MPEG VideoFormat version : Version 2Format profile : Main@MainFormat settings, BVOP : YesFormat settings, Matrix : CustomFormat settings, GOP : M=3, N=13Duration : 16s 200msBit rate : 53.4 MbpsMaximum bit rate : 8 000 KbpsWidth : 720 pixelsHeight : 576 pixelsDisplay aspect ratio : 4:3Frame rate : 25.000 fpsStandard : PALColor space : YUVChroma subsampling : 4:2:0Bit depth : 8 bitsScan type : ProgressiveCompression mode : LossyBits/(Pixel*Frame) : 5.155Time code of first frame : 00:00:00:00Time code source : Group of pictures headerGOP, Open/Closed : ClosedStream size : 103 MiB (98%)Writing library : TMPGEnc 3.0 XPress Version. 3.0.4.24Color primaries : BT.601 PALTransfer characteristics : BT.470 System B, BT.470 System GMatrix coefficients : FCC 73.682
AudioID : 189 (0xBD)-128 (0x80)Format : AC-3Format/Info : Audio Coding 3Mode extension : CM (complete main)Format settings, Endianness : BigMuxing mode : DVD-VideoDuration : 16s 192msBit rate mode : ConstantBit rate : 192 KbpsChannel(s) : 2 channelsChannel positions : Front: L RSampling rate : 48.0 KHzFrame rate : 31.250 fps (1536 spf)Compression mode : LossyStream size : 380 KiB (0%)
Menu
GeneralComplete name : D:\Musical video\CERRONE_CULTURE\VIDEO_TS\VTS_02_1.VOBFormat : MPEG-PSFile size : 1 024 MiBDuration : 5mn 53sOverall bit rate mode : VariableOverall bit rate : 24.3 MbpsWriting library : encoded by TMPGEnc 3.0 XPress Version. 3.0.4.24
VideoID : 224 (0xE0)Format : MPEG VideoFormat version : Version 2Format profile : Main@MainFormat settings, BVOP : YesFormat settings, Matrix : CustomFormat settings, GOP : M=3, N=13Format settings, picture st : FrameDuration : 5mn 53sBit rate mode : VariableBit rate : 23.2 MbpsMaximum bit rate : 8 000 KbpsWidth : 720 pixelsHeight : 576 pixelsDisplay aspect ratio : 4:3Frame rate : 25.000 fpsStandard : PALColor space : YUVChroma subsampling : 4:2:0Bit depth : 8 bitsScan type : InterlacedScan order : Top Field FirstCompression mode : LossyBits/(Pixel*Frame) : 2.238Time code of first frame : 00:00:00:00Time code source : Group of pictures headerGOP, Open/Closed : ClosedStream size : 976 MiB (95%)Writing library : TMPGEnc 3.0 XPress Version. 3.0.4.24Color primaries : BT.601 PALTransfer characteristics : BT.470 System B, BT.470 System GMatrix coefficients : FCC 73.682
Audio #1ID : 189 (0xBD)-128 (0x80)Format : AC-3Format/Info : Audio Coding 3Mode extension : CM (complete main)Format settings, Endianness : BigMuxing mode : DVD-VideoDuration : 5mn 52sBit rate mode : ConstantBit rate : 192 KbpsChannel(s) : 2 channelsChannel positions : Front: L RSampling rate : 48.0 KHzFrame rate : 31.250 fps (1536 spf)Compression mode : LossyStream size : 8.08 MiB (1%)
Audio #2ID : 189 (0xBD)-129 (0x81)Format : AC-3Format/Info : Audio Coding 3Mode extension : CM (complete main)Format settings, Endianness : BigMuxing mode : DVD-VideoDuration : 5mn 52sBit rate mode : ConstantBit rate : 448 KbpsChannel(s) : 6 channelsChannel positions : Front: L C R, Side: L R, LFESampling rate : 48.0 KHzFrame rate : 31.250 fps (1536 spf)Compression mode : LossyStream size : 18.8 MiB (2%)
Menu
GeneralComplete name : D:\Musical video\CERRONE_CULTURE\VIDEO_TS\VTS_02_2.VOBFormat : MPEG-PSFile size : 1 024 MiBDuration : 5mn 54sOverall bit rate mode : VariableOverall bit rate : 24.2 Mbps
VideoID : 224 (0xE0)Format : MPEG VideoFormat version : Version 2Format profile : Main@MainFormat settings, BVOP : YesFormat settings, Matrix : CustomFormat settings, GOP : M=3, N=13Format settings, picture st : FrameDuration : 5mn 54sBit rate mode : VariableBit rate : 23.1 MbpsMaximum bit rate : 8 000 KbpsWidth : 720 pixelsHeight : 576 pixelsDisplay aspect ratio : 4:3Frame rate : 25.000 fpsStandard : PALColor space : YUVChroma subsampling : 4:2:0Bit depth : 8 bitsScan type : InterlacedScan order : Top Field FirstCompression mode : LossyBits/(Pixel*Frame) : 2.229Time code of first frame : 00:05:53:00Time code source : Group of pictures headerGOP, Open/Closed : ClosedStream size : 976 MiB (95%)Color primaries : BT.601 PALTransfer characteristics : BT.470 System B, BT.470 System GMatrix coefficients : FCC 73.682
Audio #1ID : 189 (0xBD)-128 (0x80)Format : AC-3Format/Info : Audio Coding 3Mode extension : CM (complete main)Format settings, Endianness : BigMuxing mode : DVD-VideoDuration : 5mn 54sBit rate mode : ConstantBit rate : 192 KbpsChannel(s) : 2 channelsChannel positions : Front: L RSampling rate : 48.0 KHzFrame rate : 31.250 fps (1536 spf)Compression mode : LossyDelay relative to video : -136msStream size : 8.11 MiB (1%)
Audio #2ID : 189 (0xBD)-129 (0x81)Format : AC-3Format/Info : Audio Coding 3Mode extension : CM (complete main)Format settings, Endianness : BigMuxing mode : DVD-VideoDuration : 5mn 54sBit rate mode : ConstantBit rate : 448 KbpsChannel(s) : 6 channelsChannel positions : Front: L C R, Side: L R, LFESampling rate : 48.0 KHzFrame rate : 31.250 fps (1536 spf)Compression mode : LossyDelay relative to video : -168msStream size : 18.9 MiB (2%)
Menu
GeneralComplete name : D:\Musical video\CERRONE_CULTURE\VIDEO_TS\VTS_02_3.VOBFormat : MPEG-PSFile size : 1 024 MiBDuration : 3mn 55sOverall bit rate mode : VariableOverall bit rate : 36.5 Mbps
VideoID : 224 (0xE0)Format : MPEG VideoFormat version : Version 2Format profile : Main@MainFormat settings, BVOP : YesFormat settings, Matrix : CustomFormat settings, GOP : M=3, N=13Format settings, picture st : FrameDuration : 3mn 55sBit rate mode : VariableBit rate : 35.2 MbpsMaximum bit rate : 8 000 KbpsWidth : 720 pixelsHeight : 576 pixelsDisplay aspect ratio : 4:3Frame rate : 25.000 fpsStandard : PALColor space : YUVChroma subsampling : 4:2:0Bit depth : 8 bitsScan type : InterlacedScan order : Top Field FirstCompression mode : LossyBits/(Pixel*Frame) : 3.391Time code of first frame : 00:11:47:10Time code source : Group of pictures headerGOP, Open/Closed : ClosedStream size : 985 MiB (96%)Color primaries : BT.601 PALTransfer characteristics : BT.470 System B, BT.470 System GMatrix coefficients : FCC 73.682
Audio #1ID : 189 (0xBD)-128 (0x80)Format : AC-3Format/Info : Audio Coding 3Mode extension : CM (complete main)Format settings, Endianness : BigMuxing mode : DVD-VideoDuration : 3mn 55sBit rate mode : ConstantBit rate : 192 KbpsChannel(s) : 2 channelsChannel positions : Front: L RSampling rate : 48.0 KHzFrame rate : 31.250 fps (1536 spf)Compression mode : LossyDelay relative to video : -104msStream size : 5.38 MiB (1%)
Audio #2ID : 189 (0xBD)-129 (0x81)Format : AC-3Format/Info : Audio Coding 3Mode extension : CM (complete main)Format settings, Endianness : BigMuxing mode : DVD-VideoDuration : 3mn 55sBit rate mode : ConstantBit rate : 448 KbpsChannel(s) : 6 channelsChannel positions : Front: L C R, Side: L R, LFESampling rate : 48.0 KHzFrame rate : 31.250 fps (1536 spf)Compression mode : LossyDelay relative to video : -200msStream size : 12.6 MiB (1%)
Menu
GeneralComplete name : D:\Musical video\CERRONE_CULTURE\VIDEO_TS\VTS_02_4.VOBFormat : MPEG-PSFile size : 729 MiBDuration : 9s 88msOverall bit rate mode : VariableOverall bit rate : 673 Mbps
VideoID : 224 (0xE0)Format : MPEG VideoFormat version : Version 2Format profile : Main@MainFormat settings, BVOP : YesFormat settings, Matrix : CustomFormat settings, GOP : M=3, N=13Format settings, picture st : FrameDuration : 9s 80msBit rate mode : VariableBit rate : 659 MbpsMaximum bit rate : 8 000 KbpsWidth : 720 pixelsHeight : 576 pixelsDisplay aspect ratio : 4:3Frame rate : 25.000 fpsStandard : PALColor space : YUVChroma subsampling : 4:2:0Bit depth : 8 bitsScan type : InterlacedScan order : Top Field FirstCompression mode : LossyBits/(Pixel*Frame) : 63.546Time code of first frame : 00:15:42:13Time code source : Group of pictures headerGOP, Open/Closed : ClosedStream size : 713 MiB (98%)Color primaries : BT.601 PALTransfer characteristics : BT.470 System B, BT.470 System GMatrix coefficients : FCC 73.682
Audio #1ID : 189 (0xBD)-128 (0x80)Format : AC-3Format/Info : Audio Coding 3Mode extension : CM (complete main)Format settings, Endianness : BigMuxing mode : DVD-VideoDuration : 9s 56msBit rate mode : ConstantBit rate : 192 KbpsChannel(s) : 2 channelsChannel positions : Front: L RSampling rate : 48.0 KHzFrame rate : 31.250 fps (1536 spf)Compression mode : LossyDelay relative to video : -152msStream size : 212 KiB (0%)
Audio #2ID : 189 (0xBD)-129 (0x81)Format : AC-3Format/Info : Audio Coding 3Mode extension : CM (complete main)Format settings, Endianness : BigMuxing mode : DVD-VideoDuration : 9s 88msBit rate mode : ConstantBit rate : 448 KbpsChannel(s) : 6 channelsChannel positions : Front: L C R, Side: L R, LFESampling rate : 48.0 KHzFrame rate : 31.250 fps (1536 spf)Compression mode : LossyDelay relative to video : -184msStream size : 497 KiB (0%)
Menu

Скриншоты меню


Скриншоты



[islamvillage.com]_t_5426828.torrent
Торрент: Зарегистрирован ·  [ 2017-07-20 21:42 ] ·  024452bc6ea85d6922ab11a66f4523538eeadc4d

40 KB

Статус: проверено
Скачан: 0 раз
Размер: 7.74 GB
Оценка: 
(Голосов: 0)
Сказали спасибо: 0  Спасибо
Похожие темы
[Профиль]    [ЛС]
Показать сообщения:    
Ответить на тему

Текущее время: Сегодня 23:41

Часовой пояс: GMT + 7



Вы не можете начинать темы
Вы не можете отвечать на сообщения
Вы не можете редактировать свои сообщения
Вы не можете удалять свои сообщения
Вы не можете голосовать в опросах
Вы не можете прикреплять файлы к сообщениям
Вы можете скачивать файлы


Travel Tracker Big Scratch Off World Map Poster with Australia Flags AU Stock | 2008 ford focus style 1.8 *low milage* | C022 Rückleuchten Folie Set Dark Grey passg. für Seat Leon 5F LED 3+5 Türer