Иисус Христос – Суперзвезда / Jesus Christ Superstar [1973, Rock, BDRemux 1080p] [EN, FR]

Ответить на тему
Статистика раздачи [Обновить пиров]
Размер:  24.86 GB   |    Зарегистрирован:  1 год 11 месяцев   |    Скачан:  0 раз

Полного источника не было: Никогда

 
   
 
 
 
Автор Сообщение

islamvillage.com

Создавать темы 15-Фев-2017 17:52

[Цитировать]

Иисус Христос – Суперзвезда / Jesus Christ Superstar
Жанр: Rock
Продолжительность: 01:46:29
Год выхода: 1973
Язык оригинала: Английский
Перевод: Дублированный на французский
Язык субтитров: Русский
Вид субтитров: Вшитые
Описание: Киноверсия легендарной рок-оперы композитора Эндрю Ллойда Уэббера на стихи Тима Райса, сделанная в форме спектакля, разыгранного современными актерами на фоне живописных ближневосточных пейзажей. Помимо великолепной музыки и вокала фильм интересен необычной трактовкой темы Христа, которая представляет собой альтернативу ортодоксальному христианству. Фильм в целом получился иллюстративным, предлагающим в дополнение к великолепной музыке цветные картинки из жизни Христа, снятые на натуре в Израиле. Но привлекают аттракционные моменты, введенные Джуисоном в ткань повествования (мотив фильма в фильме, когда на студийном автобусе в пустыню приезжают актеры, чтобы разыграть этот спектакль про Христа; неожиданные кадры с танками вместо фаланг римских легионеров). Кроме того, оригинальна трактовка образа Иуды, роль которого исполняет чернокожий актер Карл Андерсон.
Режиссер: Норман Джуисон / Norman Jewison
Актеры: Тед Нили, Карл Андерсон, Ивонн Эллиман, Бэрри Деннен, Боб Бингхэм, Ларри Маршалл, Джош Мостел, Курт Ягджян, Пол Томас, Пи Дугласс
Доп. информация: С оригинала [url=viewtopic.php?t=4823416]http://Torrentc.org/forum/viewtopic.php?t=4823416[/url] убрал все "допы" и синхронизировал французскую аудиодорожку. Качество видео основного файла не изменилось. Таким образом, можно просматривать рок-оперу в качестве блу-рея и слушать арии на двух языках - английском и французском.
Качество: BD Remux 1080p
Формат файла: MKV
Видео кодек: VC-1
Аудио кодек: DTS
Видео: AVC/H.264, ~31 Mbps, 23.976 fps, 1920x1080 (16:9)
Аудио: DTS-HD MA 2.0, 1510 Kbps, 48 kHz, 2 ch [Английский - оригинал]
Аудио 2: A_MPEG/L3, 192 kbps, 44.1 KHz, 2 ch [Французский - дубляж]

Отчёт MediaInfo / BDInfo

Jesus Christ Superstar_EN_FR.mkvGeneralUniqueID : 119218066402339114077635058850144716546 (0x59B0907C7E5A658CC86D107855AC0702)Complete name : Jesus Christ Superstar_EN_FR.mkvFormat : MatroskaFile size : 24.9 GiBDuration : 1h 46mnOverall bit rate : 33.4 MbpsWriting application : Lavf55.7.100Writing library : Lavf55.7.100Video #1ID : 1Format : VC-1Format profile : AP@L3Codec ID : WVC1Codec ID/Hint : MicrosoftDuration : 1h 46mnBit rate : 31.0 MbpsWidth : 1 920 pixelsHeight : 1 080 pixelsDisplay aspect ratio : 16:9Frame rate : 23.976 fpsChroma subsampling : 4:2:0Bit depth : 8 bitsScan type : ProgressiveCompression mode : LossyBits/(Pixel*Frame) : 0.625Stream size : 23.1 GiB (93%)Language : English / unAudio #2ID : 2Format : DTSFormat/Info : Digital Theater SystemsCodec ID : A_DTSDuration : 1h 46mnBit rate mode : ConstantBit rate : 1 510 KbpsChannel(s) : 2 channelsChannel positions : Front: L RSampling rate : 48.0 KHzBit depth : 24 bitsCompression mode : LossyVideo delay : 42msStream size : 1.12 GiB (5%)Title : EnglishLanguage : English / EnglishAudio #3ID : 3Format : MPEG AudioFormat version : Version 1Format profile : Layer 3Mode : Joint stereoCodec ID : A_MPEG/L3Codec ID/Hint : MP3Duration : 1h 46mnBit rate mode : ConstantBit rate : 192 KbpsChannel(s) : 2 channelsSampling rate : 44.1 KHzBit depth : 16 bitsCompression mode : LossyStream size : 146 MiB (1%)Title : UnspecifiedLanguage : English / unText #4ID : 4Format : PGSCodec ID : S_HDMV/PGSCodec ID/Info : The same subtitle format used on BDs/HD-DVDsTitle : RussianLanguage : English / Russian

Скриншоты



[islamvillage.com]_torrent-4918261.torrent
Торрент: Зарегистрирован ·  [ 2017-02-15 17:24 ] ·  9e27f5830643d2cf23abf6fdb9bd9dfb13b89dba

63 KB

Статус: проверено
Скачан: 0 раз
Размер: 24.86 GB
Оценка: 
(Голосов: 0)
Сказали спасибо: 0  Спасибо
Похожие темы
[Профиль]    [ЛС]
Показать сообщения:    
Ответить на тему

Текущее время: Сегодня 21:07

Часовой пояс: GMT + 7



Вы не можете начинать темы
Вы не можете отвечать на сообщения
Вы не можете редактировать свои сообщения
Вы не можете удалять свои сообщения
Вы не можете голосовать в опросах
Вы не можете прикреплять файлы к сообщениям
Вы можете скачивать файлы


streamango.com | Carambis-driver-updater 1.2.0.2089 serial key gen | Extinction 2018 English 720p WEB-DL 750MB ESubs