(Abstract black metal) [CD] Ex Eye · Ex Eye · 2017, FLAC (tracks+.cue), lossless

Ответить на тему
Статистика раздачи [Обновить пиров]
Размер:  252 MB   |    Зарегистрирован:  1 год 4 месяца   |    Скачан:  0 раз

Полного источника не было: Никогда

 
   
 
 
 
Автор Сообщение

islamvillage.com

Создавать темы 29-Авг-2017 19:29

[Цитировать]

Ex Eye / Ex Eye
Жанр: abstract black metal
Носитель: CD
Страна-производитель диска: UK & EU
Год издания: 2017
Издатель: Relapse Records
Номер по каталогу: RR7385
Страна группы: USA & Canada
Аудиокодек: FLAC (*.flac)
Тип рипа: tracks+.cue
Битрейт аудио: lossless
Продолжительность: 00:36:29
Источник: Torrentc redacted.ch
Cканы оформления в раздаче есть
Треклист:
01. Xenolith; The Anvil 3:56
02. Opposition/Perihelion; The Coil 12:29
03. Anaitis Hymnal; The Arkose Disc 11:56
04. Form Constant; The Grid 8:08
Послушать бонус к веб-версии релиза

Лог создания рипа

Exact Audio Copy V1.3 from 2. September 2016
EAC extraction logfile from 16. July 2017, 13:48
Ex Eye / Ex Eye
Used drive : ASUS DRW-24B1ST a Adapter: 1 ID: 1
Read mode : SecureUtilize accurate stream : YesDefeat audio cache : YesMake use of C2 pointers : No
Read offset correction : 6Overread into Lead-In and Lead-Out : NoFill up missing offset samples with silence : YesDelete leading and trailing silent blocks : NoNull samples used in CRC calculations : YesUsed interface : Native Win32 interface for Win NT & 2000Gap handling : Appended to previous track
Used output format : User Defined EncoderSelected bitrate : 32 kBit/sQuality : HighAdd ID3 tag : NoCommand line compressor : C:\Program Files (x86)\Exact Audio Copy\Flac\flac.exeAdditional command line options : -8 -V -T "ARTIST=%artist%" -T "TITLE=%title%" -T "ALBUM=%albumtitle%" -T "DATE=%year%" -T "TRACKNUMBER=%tracknr1%" -T "GENRE=%genre%" -T "PERFORMER=%albuminterpret%" -T "COMPOSER=%composer%" -T "ALBUMARTIST=%albumartist%" -T "DISCNUMBER=%cdnumber%" -T "TOTALDISCS=%totalcds%" -T "COMMENT=%comment%" %source% -o %dest%
TOC of the extracted CD
Track | Start | Length | Start sector | End sector --------------------------------------------------------- 1 | 0:00.00 | 3:55.68 | 0 | 17692 2 | 3:55.68 | 12:29.17 | 17693 | 73884 3 | 16:25.10 | 11:56.00 | 73885 | 127584 4 | 28:21.10 | 8:08.05 | 127585 | 164189
Track 1
Filename E:\non-what FLACs\Ex Eye\Ex Eye\01 - Xenolith- The Anvil.wav
Pre-gap length 0:00:02.00
Peak level 99.4 % Extraction speed 3.2 X Track quality 100.0 % Test CRC 84D811F5 Copy CRC 84D811F5 Track not present in AccurateRip database Copy OK
Track 2
Filename E:\non-what FLACs\Ex Eye\Ex Eye\02 - Opposition,Perihelion- The Coil.wav
Peak level 100.0 % Extraction speed 4.4 X Track quality 100.0 % Test CRC 7372B8CA Copy CRC 7372B8CA Track not present in AccurateRip database Copy OK
Track 3
Filename E:\non-what FLACs\Ex Eye\Ex Eye\03 - Anaitis Hymnal- The Arkose Disc.wav
Peak level 100.0 % Extraction speed 5.3 X Track quality 100.0 % Test CRC D12520B4 Copy CRC D12520B4 Track not present in AccurateRip database Copy OK
Track 4
Filename E:\non-what FLACs\Ex Eye\Ex Eye\04 - Form Constant- The Grid.wav
Peak level 99.1 % Extraction speed 5.0 X Track quality 99.9 % Test CRC 7D7CDC3D Copy CRC 7D7CDC3D Track not present in AccurateRip database Copy OK
None of the tracks are present in the AccurateRip database
No errors occurred
End of status report
---- CUETools DB Plugin V2.1.6
[CTDB TOCID: 3p2ew2H12lEBd5ILBDYuU3dQQh0-] foundSubmit result: 3p2ew2H12lEBd5ILBDYuU3dQQh0- has been confirmedTrack | CTDB Status 1 | (2/2) Accurately ripped 2 | (2/2) Accurately ripped 3 | (2/2) Accurately ripped 4 | (2/2) Accurately ripped
==== Log checksum 010E071DF9CDE8E02A0C355457A7B58F97AFD43AC659B6755B7AEA06C0B7663A ====

Содержание индексной карты (.cue)

REM DATE 2017REM DISCID 31088D04REM COMMENT "ExactAudioCopy v1.3"CATALOG 0781676738526PERFORMER "Ex Eye"TITLE "Ex Eye"FILE "01. Xenolith; The Anvil.wav" WAVE TRACK 01 AUDIO TITLE "Xenolith; The Anvil" PERFORMER "Ex Eye" ISRC US2641738501 INDEX 01 00:00:00FILE "02. Opposition—Perihelion; The Coil.wav" WAVE TRACK 02 AUDIO TITLE "Opposition/Perihelion; The Coil" PERFORMER "Ex Eye" ISRC US2641738502 INDEX 01 00:00:00FILE "03. Anaitis Hymnal; The Arkose Disc.wav" WAVE TRACK 03 AUDIO TITLE "Anaitis Hymnal; The Arkose Disc" PERFORMER "Ex Eye" ISRC US2641738503 INDEX 01 00:00:00FILE "04. Form Constant; The Grid.wav" WAVE TRACK 04 AUDIO TITLE "Form Constant; The Grid" PERFORMER "Ex Eye" ISRC US2641738504 INDEX 01 00:00:00


[islamvillage.com]_t_5441076.torrent
Торрент: Зарегистрирован ·  [ 2017-08-29 19:18 ] ·  5b64c5fa866d009a053a114a11d11f964c8c5383

21 KB

Статус: проверено
Скачан: 0 раз
Размер: 252 MB
Оценка: 
(Голосов: 0)
Сказали спасибо: 0  Спасибо
Похожие темы
[Профиль]    [ЛС]
Показать сообщения:    
Ответить на тему

Текущее время: Сегодня 03:51

Часовой пояс: GMT + 7



Вы не можете начинать темы
Вы не можете отвечать на сообщения
Вы не можете редактировать свои сообщения
Вы не можете удалять свои сообщения
Вы не можете голосовать в опросах
Вы не можете прикреплять файлы к сообщениям
Вы можете скачивать файлы


For Xiaomi Mi Band 3 Strap Bande Wristband Watch Replacement Bracelet Accessorie | Edge Of Spider-Geddon #4A (Wk39) | Bering Sea Gold